  0
SECTION
  2
HEADER
  9
$ACADVER
  1
AC1015
  9
$ACADMAINTVER
 70
    20
  9
$DWGCODEPAGE
  3
ANSI_936
  9
$INSBASE
 10
0.0
 20
0.0
 30
0.0
  9
$EXTMIN
 10
817.9595832473225
 20
-70.02721293615102
 30
0.0
  9
$EXTMAX
 10
1125.822049411336
 20
228.1846091636204
 30
0.0
  9
$LIMMIN
 10
0.0
 20
0.0
  9
$LIMMAX
 10
12.0
 20
9.0
  9
$ORTHOMODE
 70
     1
  9
$REGENMODE
 70
     1
  9
$FILLMODE
 70
     1
  9
$QTEXTMODE
 70
     0
  9
$MIRRTEXT
 70
     0
  9
$LTSCALE
 40
1.0
  9
$ATTMODE
 70
     1
  9
$TEXTSIZE
 40
0.2
  9
$TRACEWID
 40
0.05
  9
$TEXTSTYLE
  7
STANDARD
  9
$CLAYER
  8
标注
  9
$CELTYPE
  6
ByLayer
  9
$CECOLOR
 62
   256
  9
$CELTSCALE
 40
1.0
  9
$DISPSILH
 70
     0
  9
$DIMSCALE
 40
1.0
  9
$DIMASZ
 40
0.65
  9
$DIMEXO
 40
0.88
  9
$DIMDLI
 40
0.015
  9
$DIMRND
 40
0.0
  9
$DIMDLE
 40
0.0
  9
$DIMEXE
 40
0.32
  9
$DIMTP
 40
0.0
  9
$DIMTM
 40
0.0
  9
$DIMTXT
 40
0.65
  9
$DIMCEN
 40
0.09
  9
$DIMTSZ
 40
0.0
  9
$DIMTOL
 70
     0
  9
$DIMLIM
 70
     0
  9
$DIMTIH
 70
     0
  9
$DIMTOH
 70
     0
  9
$DIMSE1
 70
     0
  9
$DIMSE2
 70
     0
  9
$DIMTAD
 70
     0
  9
$DIMZIN
 70
     8
  9
$DIMBLK
  1

  9
$DIMASO
 70
     1
  9
$DIMSHO
 70
     1
  9
$DIMPOST
  1
"
  9
$DIMAPOST
  1
"
  9
$DIMALT
 70
     0
  9
$DIMALTD
 70
     1
  9
$DIMALTF
 40
0.03937
  9
$DIMLFAC
 40
1.0
  9
$DIMTOFL
 70
     1
  9
$DIMTVP
 40
0.0
  9
$DIMTIX
 70
     0
  9
$DIMSOXD
 70
     0
  9
$DIMSAH
 70
     0
  9
$DIMBLK1
  1

  9
$DIMBLK2
  1

  9
$DIMSTYLE
  2
副本STANDARD
  9
$DIMCLRD
 70
   256
  9
$DIMCLRE
 70
   256
  9
$DIMCLRT
 70
   256
  9
$DIMTFAC
 40
1.0
  9
$DIMGAP
 40
0.3
  9
$DIMJUST
 70
     0
  9
$DIMSD1
 70
     0
  9
$DIMSD2
 70
     0
  9
$DIMTOLJ
 70
     1
  9
$DIMTZIN
 70
     8
  9
$DIMALTZ
 70
     8
  9
$DIMALTTZ
 70
     8
  9
$DIMUPT
 70
     0
  9
$DIMDEC
 70
     3
  9
$DIMTDEC
 70
     3
  9
$DIMALTU
 70
     2
  9
$DIMALTTD
 70
     1
  9
$DIMTXSTY
  7
STANDARD
  9
$DIMAUNIT
 70
     0
  9
$DIMADEC
 70
     0
  9
$DIMALTRND
 40
0.0
  9
$DIMAZIN
 70
     0
  9
$DIMDSEP
 70
    46
  9
$DIMATFIT
 70
     3
  9
$DIMFRAC
 70
     2
  9
$DIMLDRBLK
  1

  9
$DIMLUNIT
 70
     5
  9
$DIMLWD
 70
    -2
  9
$DIMLWE
 70
    -2
  9
$DIMTMOVE
 70
     2
  9
$LUNITS
 70
     2
  9
$LUPREC
 70
     4
  9
$SKETCHINC
 40
0.1
  9
$FILLETRAD
 40
0.0
  9
$AUNITS
 70
     0
  9
$AUPREC
 70
     0
  9
$MENU
  1
.
  9
$ELEVATION
 40
0.0
  9
$PELEVATION
 40
0.0
  9
$THICKNESS
 40
0.0
  9
$LIMCHECK
 70
     0
  9
$CHAMFERA
 40
0.0
  9
$CHAMFERB
 40
0.0
  9
$CHAMFERC
 40
0.0
  9
$CHAMFERD
 40
0.0
  9
$SKPOLY
 70
     0
  9
$TDCREATE
 40
2455434.724808658
  9
$TDUCREATE
 40
2455434.391475324
  9
$TDUPDATE
 40
2458562.447886007
  9
$TDUUPDATE
 40
2458562.114552674
  9
$TDINDWG
 40
0.4337067245
  9
$TDUSRTIMER
 40
0.4336897222
  9
$USRTIMER
 70
     1
  9
$ANGBASE
 50
0.0
  9
$ANGDIR
 70
     0
  9
$PDMODE
 70
     0
  9
$PDSIZE
 40
0.0
  9
$PLINEWID
 40
0.0
  9
$SPLFRAME
 70
     0
  9
$SPLINETYPE
 70
     6
  9
$SPLINESEGS
 70
     8
  9
$HANDSEED
  5
68C5
  9
$SURFTAB1
 70
     6
  9
$SURFTAB2
 70
     6
  9
$SURFTYPE
 70
     6
  9
$SURFU
 70
     6
  9
$SURFV
 70
     6
  9
$UCSBASE
  2

  9
$UCSNAME
  2

  9
$UCSORG
 10
0.0
 20
0.0
 30
0.0
  9
$UCSXDIR
 10
1.0
 20
0.0
 30
0.0
  9
$UCSYDIR
 10
0.0
 20
1.0
 30
0.0
  9
$UCSORTHOREF
  2

  9
$UCSORTHOVIEW
 70
     0
  9
$UCSORGTOP
 10
0.0
 20
0.0
 30
0.0
  9
$UCSORGBOTTOM
 10
0.0
 20
0.0
 30
0.0
  9
$UCSORGLEFT
 10
0.0
 20
0.0
 30
0.0
  9
$UCSORGRIGHT
 10
0.0
 20
0.0
 30
0.0
  9
$UCSORGFRONT
 10
0.0
 20
0.0
 30
0.0
  9
$UCSORGBACK
 10
0.0
 20
0.0
 30
0.0
  9
$PUCSBASE
  2

  9
$PUCSNAME
  2

  9
$PUCSORG
 10
0.0
 20
0.0
 30
0.0
  9
$PUCSXDIR
 10
1.0
 20
0.0
 30
0.0
  9
$PUCSYDIR
 10
0.0
 20
1.0
 30
0.0
  9
$PUCSORTHOREF
  2

  9
$PUCSORTHOVIEW
 70
     0
  9
$PUCSORGTOP
 10
0.0
 20
0.0
 30
0.0
  9
$PUCSORGBOTTOM
 10
0.0
 20
0.0
 30
0.0
  9
$PUCSORGLEFT
 10
0.0
 20
0.0
 30
0.0
  9
$PUCSORGRIGHT
 10
0.0
 20
0.0
 30
0.0
  9
$PUCSORGFRONT
 10
0.0
 20
0.0
 30
0.0
  9
$PUCSORGBACK
 10
0.0
 20
0.0
 30
0.0
  9
$USERI1
 70
     0
  9
$USERI2
 70
     0
  9
$USERI3
 70
     0
  9
$USERI4
 70
     0
  9
$USERI5
 70
     0
  9
$USERR1
 40
0.0
  9
$USERR2
 40
0.0
  9
$USERR3
 40
0.0
  9
$USERR4
 40
0.0
  9
$USERR5
 40
2.5
  9
$WORLDVIEW
 70
     1
  9
$SHADEDGE
 70
     3
  9
$SHADEDIF
 70
    70
  9
$TILEMODE
 70
     1
  9
$MAXACTVP
 70
    64
  9
$PINSBASE
 10
0.0
 20
0.0
 30
0.0
  9
$PLIMCHECK
 70
     0
  9
$PEXTMIN
 10
1.000000000000000E+20
 20
1.000000000000000E+20
 30
1.000000000000000E+20
  9
$PEXTMAX
 10
-1.000000000000000E+20
 20
-1.000000000000000E+20
 30
-1.000000000000000E+20
  9
$PLIMMIN
 10
0.0
 20
0.0
  9
$PLIMMAX
 10
12.0
 20
9.0
  9
$UNITMODE
 70
     0
  9
$VISRETAIN
 70
     1
  9
$PLINEGEN
 70
     0
  9
$PSLTSCALE
 70
     1
  9
$TREEDEPTH
 70
  3020
  9
$CMLSTYLE
  2
Standard
  9
$CMLJUST
 70
     0
  9
$CMLSCALE
 40
1.0
  9
$PROXYGRAPHICS
 70
     1
  9
$MEASUREMENT
 70
     0
  9
$CELWEIGHT
370
    -1
  9
$ENDCAPS
280
     0
  9
$JOINSTYLE
280
     0
  9
$LWDISPLAY
290
     0
  9
$INSUNITS
 70
     0
  9
$HYPERLINKBASE
  1

  9
$STYLESHEET
  1

  9
$XEDIT
290
     1
  9
$CEPSNTYPE
380
     0
  9
$PSTYLEMODE
290
     1
  9
$FINGERPRINTGUID
  2
{7BAC09DB-C4D0-41DB-8C07-4C6808ADD930}
  9
$VERSIONGUID
  2
{7BBCDA1A-F980-400C-B02D-6CB9BA79B13D}
  9
$EXTNAMES
290
     1
  9
$PSVPSCALE
 40
0.0
  9
$OLESTARTUP
290
     0
  0
ENDSEC
  0
SECTION
  2
CLASSES
  0
CLASS
  1
ACDBDICTIONARYWDFLT
  2
AcDbDictionaryWithDefault
  3
ObjectDBX Classes
 90
        0
280
     0
281
     0
  0
CLASS
  1
MATERIAL
  2
AcDbMaterial
  3
ObjectDBX Classes
 90
     1153
280
     0
281
     0
  0
CLASS
  1
VISUALSTYLE
  2
AcDbVisualStyle
  3
ObjectDBX Classes
 90
     4095
280
     0
281
     0
  0
CLASS
  1
SCALE
  2
AcDbScale
  3
ObjectDBX Classes
 90
     1153
280
     0
281
     0
  0
CLASS
  1
TABLESTYLE
  2
AcDbTableStyle
  3
ObjectDBX Classes
 90
     4095
280
     0
281
     0
  0
CLASS
  1
MLEADERSTYLE
  2
AcDbMLeaderStyle
  3
ACDB_MLEADERSTYLE_CLASS
 90
     4095
280
     0
281
     0
  0
CLASS
  1
VLO-VL
  2
vlo_VL
  3
VL|AutoLISP based application
 90
      129
280
     0
281
     0
  0
CLASS
  1
DICTIONARYVAR
  2
AcDbDictionaryVar
  3
ObjectDBX Classes
 90
        0
280
     0
281
     0
  0
CLASS
  1
CELLSTYLEMAP
  2
AcDbCellStyleMap
  3
ObjectDBX Classes
 90
     1152
280
     0
281
     0
  0
CLASS
  1
DIMASSOC
  2
AcDbDimAssoc
  3
"AcDbDimAssoc|Product Desc:     AcDim ARX App For Dimension|Company:          Autodesk, Inc.|WEB Address:      www.autodesk.com"
 90
        0
280
     0
281
     0
  0
CLASS
  1
SORTENTSTABLE
  2
AcDbSortentsTable
  3
ObjectDBX Classes
 90
        0
280
     0
281
     0
  0
CLASS
  1
ACDBPLACEHOLDER
  2
AcDbPlaceHolder
  3
ObjectDBX Classes
 90
        0
280
     0
281
     0
  0
CLASS
  1
LAYOUT
  2
AcDbLayout
  3
ObjectDBX Classes
 90
        0
280
     0
281
     0
  0
ENDSEC
  0
SECTION
  2
TABLES
  0
TABLE
  2
VPORT
  5
5F02
330
0
100
AcDbSymbolTable
 70
     1
  0
VPORT
  5
5F73
330
5F02
100
AcDbSymbolTableRecord
100
AcDbViewportTableRecord
  2
*ACTIVE
 70
     0
 10
0.0
 20
0.0
 11
1.0
 21
1.0
 12
968.5516065213059
 22
136.4201165902129
 13
0.0
 23
0.0
 14
0.5
 24
0.5
 15
0.5
 25
0.5
 16
0.0
 26
0.0
 36
1.0
 17
0.0
 27
0.0
 37
0.0
 40
79.13840153418357
 41
1.522756827048114
 42
50.0
 43
0.0
 44
0.0
 50
0.0
 51
0.0
 71
     0
 72
  1000
 73
     1
 74
     3
 75
     0
 76
     0
 77
     0
 78
     0
281
     0
 65
     1
110
0.0
120
0.0
130
0.0
111
1.0
121
0.0
131
0.0
112
0.0
122
1.0
132
0.0
 79
     0
146
0.0
  0
ENDTAB
  0
TABLE
  2
LTYPE
  5
5EFF
330
0
100
AcDbSymbolTable
 70
    11
  0
LTYPE
  5
5F5C
330
5EFF
100
AcDbSymbolTableRecord
100
AcDbLinetypeTableRecord
  2
ByBlock
 70
     0
  3

 72
    65
 73
     0
 40
0.0
  0
LTYPE
  5
5F5D
330
5EFF
100
AcDbSymbolTableRecord
100
AcDbLinetypeTableRecord
  2
ByLayer
 70
     0
  3

 72
    65
 73
     0
 40
0.0
  0
LTYPE
  5
5F5E
330
5EFF
100
AcDbSymbolTableRecord
100
AcDbLinetypeTableRecord
  2
CONTINUOUS
 70
     0
  3
Solid line
 72
    65
 73
     0
 40
0.0
  0
LTYPE
  5
5F74
330
5EFF
100
AcDbSymbolTableRecord
100
AcDbLinetypeTableRecord
  2
CENTER2
 70
     0
  3
Center (.5x) ___ _ ___ _ ___ _ ___ _ ___ _ ___
 72
    65
 73
     4
 40
28.575
 49
19.05
 74
     0
 49
-3.174999999999998
 74
     0
 49
3.174999999999998
 74
     0
 49
-3.174999999999998
 74
     0
  0
LTYPE
  5
5F75
330
5EFF
100
AcDbSymbolTableRecord
100
AcDbLinetypeTableRecord
  2
HIDDEN2
 70
     0
  3
Hidden (.5x) _ _ _ _ _ _ _ _ _ _ _ _ _ _ _ _ _
 72
    65
 73
     2
 40
4.762499999999998
 49
3.174999999999998
 74
     0
 49
-1.587499999999999
 74
     0
  0
LTYPE
  5
5F76
330
5EFF
100
AcDbSymbolTableRecord
100
AcDbLinetypeTableRecord
  2
HIDDEN
 70
     0
  3
Hidden __ __ __ __ __ __ __ __ __ __ __ __ __ _
 72
    65
 73
     2
 40
0.375
 49
0.25
 74
     0
 49
-0.125
 74
     0
  0
ENDTAB
  0
TABLE
  2
LAYER
  5
5EFC
102
{ACAD_XDICTIONARY
360
61B7
102
}
330
0
100
AcDbSymbolTable
 70
     9
  0
LAYER
  5
5F56
102
{ACAD_XDICTIONARY
360
60F4
102
}
330
5EFC
100
AcDbSymbolTableRecord
100
AcDbLayerTableRecord
  2
0
 70
     0
 62
     7
  6
CONTINUOUS
370
    -3
390
5F09
  0
LAYER
  5
5F72
102
{ACAD_XDICTIONARY
360
60F6
102
}
330
5EFC
100
AcDbSymbolTableRecord
100
AcDbLayerTableRecord
  2
标注
 70
     0
 62
    80
  6
CONTINUOUS
370
    -3
390
5F09
  0
LAYER
  5
5F7D
102
{ACAD_XDICTIONARY
360
60F8
102
}
330
5EFC
100
AcDbSymbolTableRecord
100
AcDbLayerTableRecord
  2
中心线
 70
     0
 62
     1
  6
CENTER2
370
    -3
390
5F09
  0
LAYER
  5
5F7E
102
{ACAD_XDICTIONARY
360
60FA
102
}
330
5EFC
100
AcDbSymbolTableRecord
100
AcDbLayerTableRecord
  2
虚线
 70
     0
 62
     4
  6
HIDDEN2
370
    -3
390
5F09
  0
LAYER
  5
5F7F
330
5EFC
100
AcDbSymbolTableRecord
100
AcDbLayerTableRecord
  2
DEFPOINTS
 70
     0
 62
     7
  6
CONTINUOUS
290
     0
370
    -3
390
5F09
  0
LAYER
  5
5F80
102
{ACAD_XDICTIONARY
360
60FC
102
}
330
5EFC
100
AcDbSymbolTableRecord
100
AcDbLayerTableRecord
  2
细实线
 70
     0
 62
     7
  6
CONTINUOUS
370
    -3
390
5F09
  0
LAYER
  5
61B1
102
{ACAD_XDICTIONARY
360
61B2
102
}
330
5EFC
100
AcDbSymbolTableRecord
100
AcDbLayerTableRecord
  2
粗实线
 70
     0
 62
     7
  6
CONTINUOUS
370
    35
390
5F09
  0
ENDTAB
  0
TABLE
  2
STYLE
  5
5EFD
330
0
100
AcDbSymbolTable
 70
     3
  0
STYLE
  5
5F57
330
5EFD
100
AcDbSymbolTableRecord
100
AcDbTextStyleTableRecord
  2
STANDARD
 70
     0
 40
0.0
 41
1.0
 50
0.0
 71
     0
 42
0.2
  3
arial.ttf
  4

1001
ACAD
1000
Arial
1071
       34
  0
ENDTAB
  0
TABLE
  2
VIEW
  5
5F00
330
0
100
AcDbSymbolTable
 70
     0
  0
ENDTAB
  0
TABLE
  2
UCS
  5
5F01
330
0
100
AcDbSymbolTable
 70
     0
  0
ENDTAB
  0
TABLE
  2
APPID
  5
5F03
330
0
100
AcDbSymbolTable
 70
    27
  0
APPID
  5
5F58
330
5F03
100
AcDbSymbolTableRecord
100
AcDbRegAppTableRecord
  2
ACAD
 70
     0
  0
APPID
  5
5F5F
330
5F03
100
AcDbSymbolTableRecord
100
AcDbRegAppTableRecord
  2
ACADANNOTATIVE
 70
     0
  0
APPID
  5
5F69
330
5F03
100
AcDbSymbolTableRecord
100
AcDbRegAppTableRecord
  2
ACAD_MLEADERVER
 70
     0
  0
APPID
  5
5F84
330
5F03
100
AcDbSymbolTableRecord
100
AcDbRegAppTableRecord
  2
ACAECLAYERSTANDARD
 70
     0
  0
APPID
  5
5F85
330
5F03
100
AcDbSymbolTableRecord
100
AcDbRegAppTableRecord
  2
ACAD_DSTYLE_DIMEXT_LENGTH
 70
     0
  0
APPID
  5
5F86
330
5F03
100
AcDbSymbolTableRecord
100
AcDbRegAppTableRecord
  2
ACAD_DSTYLE_DIMEXT_ENABLED
 70
     0
  0
APPID
  5
5F87
330
5F03
100
AcDbSymbolTableRecord
100
AcDbRegAppTableRecord
  2
ACAD_DSTYLE_DIMJOGGED_JOGA
 70
     0
  0
APPID
  5
5F88
330
5F03
100
AcDbSymbolTableRecord
100
AcDbRegAppTableRecord
  2
ACAD_DSTYLE_DIMARC_LENGTH_
 70
     0
  0
APPID
  5
5F89
330
5F03
100
AcDbSymbolTableRecord
100
AcDbRegAppTableRecord
  2
ACAD_PSEXT
 70
     0
  0
APPID
  5
5F8A
330
5F03
100
AcDbSymbolTableRecord
100
AcDbRegAppTableRecord
  2
MCAD_NO_VIS
 70
     0
  0
APPID
  5
5F8B
330
5F03
100
AcDbSymbolTableRecord
100
AcDbRegAppTableRecord
  2
ACAD_TEMP_GRAPHIC
 70
     0
  0
APPID
  5
5F8C
330
5F03
100
AcDbSymbolTableRecord
100
AcDbRegAppTableRecord
  2
AD_DRAW
 70
     0
  0
APPID
  5
5F8D
330
5F03
100
AcDbSymbolTableRecord
100
AcDbRegAppTableRecord
  2
ACATTRIBSERVICES
 70
     0
  0
APPID
  5
5F8E
330
5F03
100
AcDbSymbolTableRecord
100
AcDbRegAppTableRecord
  2
DESIGNERASSEMBLIES
 70
     0
  0
APPID
  5
5F8F
330
5F03
100
AcDbSymbolTableRecord
100
AcDbRegAppTableRecord
  2
ACADM_DIM_EDIT
 70
     0
  0
APPID
  5
5F90
330
5F03
100
AcDbSymbolTableRecord
100
AcDbRegAppTableRecord
  2
AMDT_DM_ADJ
 70
     0
  0
APPID
  5
5F91
330
5F03
100
AcDbSymbolTableRecord
100
AcDbRegAppTableRecord
  2
ACAD_DSTYLE_DIMJAG
 70
     0
  0
APPID
  5
5F92
330
5F03
100
AcDbSymbolTableRecord
100
AcDbRegAppTableRecord
  2
ACAD_DSTYLE_DIMBREAK
 70
     0
  0
APPID
  5
5F93
330
5F03
100
AcDbSymbolTableRecord
100
AcDbRegAppTableRecord
  2
ACAD_DSTYLE_DIMTALN
 70
     0
  0
APPID
  5
5F94
330
5F03
100
AcDbSymbolTableRecord
100
AcDbRegAppTableRecord
  2
GENIUS_GENODEF_13
 70
     0
  0
APPID
  5
5F95
330
5F03
100
AcDbSymbolTableRecord
100
AcDbRegAppTableRecord
  2
GENIUS_GENOBJ-N-FIL_13
 70
     0
  0
APPID
  5
5F96
330
5F03
100
AcDbSymbolTableRecord
100
AcDbRegAppTableRecord
  2
ACAD_EXEMPT_FROM_CAD_STANDARDS
 70
     0
  0
APPID
  5
5F97
330
5F03
100
AcDbSymbolTableRecord
100
AcDbRegAppTableRecord
  2
ACAD_DSTYLE_DIM_LINETYPE
 70
     0
  0
APPID
  5
5F98
330
5F03
100
AcDbSymbolTableRecord
100
AcDbRegAppTableRecord
  2
ACAD_DSTYLE_DIM_EXT1_LINETYPE
 70
     0
  0
APPID
  5
5F99
330
5F03
100
AcDbSymbolTableRecord
100
AcDbRegAppTableRecord
  2
ACAD_DSTYLE_DIM_EXT2_LINETYPE
 70
     0
  0
APPID
  5
5F9A
330
5F03
100
AcDbSymbolTableRecord
100
AcDbRegAppTableRecord
  2
ACAD_DSTYLE_DIMRADIAL_EXTENSION
 70
     0
  0
APPID
  5
6488
330
5F03
100
AcDbSymbolTableRecord
100
AcDbRegAppTableRecord
  2
AcadAnnoPO
 70
     0
  0
ENDTAB
  0
TABLE
  2
DIMSTYLE
  5
5F04
330
0
100
AcDbSymbolTable
 70
    18
100
AcDbDimStyleTable
 71
     2
340
5F9B
340
5F59
  0
DIMSTYLE
105
5F59
102
{ACAD_REACTORS
330
6781
102
}
330
5F04
100
AcDbSymbolTableRecord
100
AcDbDimStyleTableRecord
  2
STANDARD
 70
     0
 41
0.65
 73
     0
 74
     0
140
0.65
176
     3
177
     3
178
     3
271
     3
272
     3
276
     2
277
     5
279
     2
284
     8
285
     8
286
     8
340
5F57
371
    13
372
    13
1001
ACAD_DSTYLE_DIMJAG
1070
   388
1040
1.5
1001
ACAD_DSTYLE_DIMTALN
1070
   392
1070
     0
1001
ACAD_DSTYLE_DIM_LINETYPE
1070
   380
1005
5F5E
1001
ACAD_DSTYLE_DIM_EXT1_LINETYPE
1070
   381
1005
5F5E
1001
ACAD_DSTYLE_DIM_EXT2_LINETYPE
1070
   382
1005
5F5E
  0
DIMSTYLE
105
5F9B
102
{ACAD_REACTORS
330
6784
330
67B3
330
67CB
330
67D9
330
67E7
330
67F5
330
6803
330
6811
330
6867
102
}
330
5F04
100
AcDbSymbolTableRecord
100
AcDbDimStyleTableRecord
  2
副本STANDARD
 70
     0
  3
"
  4
"
 41
0.65
 42
0.88
 43
0.015
 44
0.32
 73
     0
 74
     0
 78
     8
140
0.65
143
0.03937
147
0.3
171
     1
172
     1
176
   256
177
   256
178
   256
271
     3
272
     3
274
     1
276
     2
277
     5
279
     2
284
     8
285
     8
286
     8
340
5F57
1001
ACAD_DSTYLE_DIMJAG
1070
   388
1040
1.5
1001
ACAD_DSTYLE_DIMTALN
1070
   392
1070
     0
  0
DIMSTYLE
105
6605
330
5F04
100
AcDbSymbolTableRecord
100
AcDbDimStyleTableRecord
  2
中14+
 70
     0
  4
"
 41
14.0
 42
10.0
 43
1.0
 44
2.0
 73
     0
 74
     0
 78
     8
140
14.0
141
2.0
143
0.03937007874016
147
5.0
171
     3
172
     1
177
   256
179
     1
271
     1
272
     1
273
     7
274
     3
278
    44
283
     0
284
     8
340
5F57
1001
ACAD_DSTYLE_DIMBREAK
1070
   391
1040
0.2
1001
ACAD_DSTYLE_DIMJAG
1070
   388
1040
1.5
1001
ACAD_DSTYLE_DIMTALN
1070
   392
1070
     0
  0
DIMSTYLE
105
6606
330
5F04
100
AcDbSymbolTableRecord
100
AcDbDimStyleTableRecord
  2
毫米英寸Standard
 70
     0
  3
mm
  4
"
 41
14.0
 42
20.0
 44
8.0
 73
     0
 74
     0
 78
     8
 79
     2
140
14.0
143
0.03937
147
8.0
170
     1
171
     3
172
     1
176
   256
177
   256
178
   256
179
     1
271
     1
272
     1
273
     7
274
     3
278
    44
340
5F57
1001
ACAD_DSTYLE_DIMBREAK
1070
   391
1040
0.125
1001
ACAD_DSTYLE_DIMJAG
1070
   388
1040
1.5
1001
ACAD_DSTYLE_DIMTALN
1070
   392
1070
     0
  0
DIMSTYLE
105
6607
330
5F04
100
AcDbSymbolTableRecord
100
AcDbDimStyleTableRecord
  2
放大3倍
 70
     0
  4
"
 41
14.0
 42
10.0
 43
1.0
 44
2.0
 73
     0
 74
     0
 78
     8
140
14.0
141
2.0
143
0.03937007874016
144
0.333333333333333
147
5.0
171
     3
172
     1
176
     3
177
   256
178
     3
179
     1
271
     1
272
     1
273
     7
274
     3
278
    44
283
     0
284
     8
340
5F57
371
     9
372
     9
1001
ACAD_DSTYLE_DIMBREAK
1070
   391
1040
0.2
1001
ACAD_DSTYLE_DIMJAG
1070
   388
1040
1.5
1001
ACAD_DSTYLE_DIMTALN
1070
   392
1070
     0
1001
ACAD_DSTYLE_DIM_LINETYPE
1070
   380
1005
5F5E
1001
ACAD_DSTYLE_DIM_EXT1_LINETYPE
1070
   381
1005
5F5E
1001
ACAD_DSTYLE_DIM_EXT2_LINETYPE
1070
   382
1005
5F5E
  0
ENDTAB
  0
TABLE
  2
BLOCK_RECORD
  5
5EFB
330
0
100
AcDbSymbolTable
 70
   215
  0
BLOCK_RECORD
  5
5F6E
102
{ACAD_XDICTIONARY
360
654F
102
}
330
5EFB
100
AcDbSymbolTableRecord
100
AcDbBlockTableRecord
  2
*Model_Space
340
5F71
  0
BLOCK_RECORD
  5
5F6A
330
5EFB
100
AcDbSymbolTableRecord
100
AcDbBlockTableRecord
  2
*Paper_Space
340
5F6D
  0
BLOCK_RECORD
  5
60BF
330
5EFB
100
AcDbSymbolTableRecord
100
AcDbBlockTableRecord
  2
*U141
340
0
  0
BLOCK_RECORD
  5
60C1
330
5EFB
100
AcDbSymbolTableRecord
100
AcDbBlockTableRecord
  2
*U142
340
0
  0
BLOCK_RECORD
  5
60C3
330
5EFB
100
AcDbSymbolTableRecord
100
AcDbBlockTableRecord
  2
*U143
340
0
  0
BLOCK_RECORD
  5
60C5
330
5EFB
100
AcDbSymbolTableRecord
100
AcDbBlockTableRecord
  2
*U144
340
0
  0
BLOCK_RECORD
  5
60CD
330
5EFB
100
AcDbSymbolTableRecord
100
AcDbBlockTableRecord
  2
*D148
340
0
  0
BLOCK_RECORD
  5
60CF
330
5EFB
100
AcDbSymbolTableRecord
100
AcDbBlockTableRecord
  2
*U149
340
0
102
{BLKREFS
331
5DB5
102
}
  0
BLOCK_RECORD
  5
60D0
330
5EFB
100
AcDbSymbolTableRecord
100
AcDbBlockTableRecord
  2
*D150
340
0
  0
BLOCK_RECORD
  5
60D2
330
5EFB
100
AcDbSymbolTableRecord
100
AcDbBlockTableRecord
  2
*U151
340
0
102
{BLKREFS
331
5DC2
102
}
  0
BLOCK_RECORD
  5
60D3
330
5EFB
100
AcDbSymbolTableRecord
100
AcDbBlockTableRecord
  2
*D152
340
0
  0
BLOCK_RECORD
  5
60D5
330
5EFB
100
AcDbSymbolTableRecord
100
AcDbBlockTableRecord
  2
*U153
340
0
102
{BLKREFS
331
5DCF
102
}
  0
BLOCK_RECORD
  5
60D6
330
5EFB
100
AcDbSymbolTableRecord
100
AcDbBlockTableRecord
  2
*D154
340
0
  0
BLOCK_RECORD
  5
60D8
330
5EFB
100
AcDbSymbolTableRecord
100
AcDbBlockTableRecord
  2
*U155
340
0
102
{BLKREFS
331
5DDC
102
}
  0
BLOCK_RECORD
  5
60D9
330
5EFB
100
AcDbSymbolTableRecord
100
AcDbBlockTableRecord
  2
*D156
340
0
  0
BLOCK_RECORD
  5
60DB
330
5EFB
100
AcDbSymbolTableRecord
100
AcDbBlockTableRecord
  2
*U157
340
0
102
{BLKREFS
331
5DE4
102
}
  0
BLOCK_RECORD
  5
60DC
330
5EFB
100
AcDbSymbolTableRecord
100
AcDbBlockTableRecord
  2
*D158
340
0
  0
BLOCK_RECORD
  5
60DE
330
5EFB
100
AcDbSymbolTableRecord
100
AcDbBlockTableRecord
  2
*U159
340
0
102
{BLKREFS
331
5DF2
102
}
  0
BLOCK_RECORD
  5
60DF
330
5EFB
100
AcDbSymbolTableRecord
100
AcDbBlockTableRecord
  2
*D160
340
0
  0
BLOCK_RECORD
  5
60E1
330
5EFB
100
AcDbSymbolTableRecord
100
AcDbBlockTableRecord
  2
*U161
340
0
102
{BLKREFS
331
5DFD
102
}
  0
BLOCK_RECORD
  5
60E2
330
5EFB
100
AcDbSymbolTableRecord
100
AcDbBlockTableRecord
  2
*D162
340
0
  0
BLOCK_RECORD
  5
60E4
330
5EFB
100
AcDbSymbolTableRecord
100
AcDbBlockTableRecord
  2
*U163
340
0
102
{BLKREFS
331
5E0A
102
}
  0
BLOCK_RECORD
  5
60E5
330
5EFB
100
AcDbSymbolTableRecord
100
AcDbBlockTableRecord
  2
*D164
340
0
  0
BLOCK_RECORD
  5
60E7
330
5EFB
100
AcDbSymbolTableRecord
100
AcDbBlockTableRecord
  2
*U165
340
0
102
{BLKREFS
331
5E19
102
}
  0
BLOCK_RECORD
  5
6367
330
5EFB
100
AcDbSymbolTableRecord
100
AcDbBlockTableRecord
  2
*D187
340
0
  0
BLOCK_RECORD
  5
6490
330
5EFB
100
AcDbSymbolTableRecord
100
AcDbBlockTableRecord
  2
*D191
340
0
  0
BLOCK_RECORD
  5
649E
330
5EFB
100
AcDbSymbolTableRecord
100
AcDbBlockTableRecord
  2
*D192
340
0
  0
BLOCK_RECORD
  5
64AC
330
5EFB
100
AcDbSymbolTableRecord
100
AcDbBlockTableRecord
  2
*D193
340
0
  0
BLOCK_RECORD
  5
64BA
330
5EFB
100
AcDbSymbolTableRecord
100
AcDbBlockTableRecord
  2
*D194
340
0
  0
BLOCK_RECORD
  5
64C8
330
5EFB
100
AcDbSymbolTableRecord
100
AcDbBlockTableRecord
  2
*D195
340
0
  0
BLOCK_RECORD
  5
6500
330
5EFB
100
AcDbSymbolTableRecord
100
AcDbBlockTableRecord
  2
*D196
340
0
  0
BLOCK_RECORD
  5
6511
330
5EFB
100
AcDbSymbolTableRecord
100
AcDbBlockTableRecord
  2
*D197
340
0
  0
BLOCK_RECORD
  5
6522
330
5EFB
100
AcDbSymbolTableRecord
100
AcDbBlockTableRecord
  2
*D198
340
0
  0
BLOCK_RECORD
  5
6554
330
5EFB
100
AcDbSymbolTableRecord
100
AcDbBlockTableRecord
  2
*D199
340
0
  0
BLOCK_RECORD
  5
6562
330
5EFB
100
AcDbSymbolTableRecord
100
AcDbBlockTableRecord
  2
*D200
340
0
  0
BLOCK_RECORD
  5
6570
330
5EFB
100
AcDbSymbolTableRecord
100
AcDbBlockTableRecord
  2
*D201
340
0
  0
BLOCK_RECORD
  5
6608
102
{ACAD_XDICTIONARY
360
667D
102
}
330
5EFB
100
AcDbSymbolTableRecord
100
AcDbBlockTableRecord
  2
A$C1ED2169A
340
0
1001
ACAD
1000
DesignCenter Data
1002
{
1070
     1
1070
     1
1002
}
  0
BLOCK_RECORD
  5
6785
330
5EFB
100
AcDbSymbolTableRecord
100
AcDbBlockTableRecord
  2
*D205
340
0
  0
BLOCK_RECORD
  5
6792
330
5EFB
100
AcDbSymbolTableRecord
100
AcDbBlockTableRecord
  2
*D206
340
0
  0
BLOCK_RECORD
  5
67B4
330
5EFB
100
AcDbSymbolTableRecord
100
AcDbBlockTableRecord
  2
*D207
340
0
  0
BLOCK_RECORD
  5
67CC
330
5EFB
100
AcDbSymbolTableRecord
100
AcDbBlockTableRecord
  2
*D208
340
0
  0
BLOCK_RECORD
  5
67DA
330
5EFB
100
AcDbSymbolTableRecord
100
AcDbBlockTableRecord
  2
*D209
340
0
  0
BLOCK_RECORD
  5
67E8
330
5EFB
100
AcDbSymbolTableRecord
100
AcDbBlockTableRecord
  2
*D210
340
0
  0
BLOCK_RECORD
  5
67F6
330
5EFB
100
AcDbSymbolTableRecord
100
AcDbBlockTableRecord
  2
*D211
340
0
  0
BLOCK_RECORD
  5
6804
330
5EFB
100
AcDbSymbolTableRecord
100
AcDbBlockTableRecord
  2
*D212
340
0
  0
BLOCK_RECORD
  5
6812
330
5EFB
100
AcDbSymbolTableRecord
100
AcDbBlockTableRecord
  2
*D213
340
0
  0
BLOCK_RECORD
  5
6868
330
5EFB
100
AcDbSymbolTableRecord
100
AcDbBlockTableRecord
  2
*D214
340
0
  0
ENDTAB
  0
ENDSEC
  0
SECTION
  2
BLOCKS
  0
BLOCK
  5
5F6F
330
5F6E
100
AcDbEntity
  8
0
100
AcDbBlockBegin
  2
*Model_Space
 70
     0
 10
0.0
 20
0.0
 30
0.0
  3
*Model_Space
  1

  0
ENDBLK
  5
5F70
330
5F6E
100
AcDbEntity
  8
0
100
AcDbBlockEnd
  0
BLOCK
  5
5F6B
330
5F6A
100
AcDbEntity
 67
     1
  8
0
100
AcDbBlockBegin
  2
*Paper_Space
 70
     0
 10
0.0
 20
0.0
 30
0.0
  3
*Paper_Space
  1

  0
ENDBLK
  5
5F6C
330
5F6A
100
AcDbEntity
 67
     1
  8
0
100
AcDbBlockEnd
  0
BLOCK
  5
60C0
330
60BF
100
AcDbEntity
  8
0
100
AcDbBlockBegin
  2
*U141
 70
     1
 10
0.0
 20
0.0
 30
0.0
  3
*U141
  1

  0
CIRCLE
  5
5296
330
60BF
100
AcDbEntity
  8
0
100
AcDbCircle
 10
832.8376344350749
 20
159.8109652034818
 30
0.0
 40
2.28346456692
  0
ENDBLK
  5
5298
330
60BF
100
AcDbEntity
  8
0
100
AcDbBlockEnd
  0
BLOCK
  5
60C2
330
60C1
100
AcDbEntity
  8
0
100
AcDbBlockBegin
  2
*U142
 70
     1
 10
0.0
 20
0.0
 30
0.0
  3
*U142
  1

  0
TEXT
  5
52B2
330
60C1
100
AcDbEntity
  8
标注
100
AcDbText
 10
829.5615826959837
 20
170.9044087411567
 30
0.0
 40
0.7874015748031497
  1
FRONT VIEW
100
AcDbText
  0
ENDBLK
  5
52B4
330
60C1
100
AcDbEntity
  8
0
100
AcDbBlockEnd
  0
BLOCK
  5
60C4
330
60C3
100
AcDbEntity
  8
0
100
AcDbBlockBegin
  2
*U143
 70
     1
 10
0.0
 20
0.0
 30
0.0
  3
*U143
  1

  0
TEXT
  5
52B6
330
60C3
100
AcDbEntity
  8
标注
100
AcDbText
 10
827.9853820382577
 20
139.1671955263282
 30
0.0
 40
0.7874015748031497
  1
OVERHEAD VIEW
100
AcDbText
  0
ENDBLK
  5
52B8
330
60C3
100
AcDbEntity
  8
0
100
AcDbBlockEnd
  0
BLOCK
  5
60C6
330
60C5
100
AcDbEntity
  8
0
100
AcDbBlockBegin
  2
*U144
 70
     1
 10
0.0
 20
0.0
 30
0.0
  3
*U144
  1

  0
TEXT
  5
52BE
330
60C5
100
AcDbEntity
  8
标注
100
AcDbText
 10
832.1646848140639
 20
106.0454772909248
 30
0.0
 40
0.7874015748031497
  1
 CUTOUT
100
AcDbText
  0
ENDBLK
  5
52C0
330
60C5
100
AcDbEntity
  8
0
100
AcDbBlockEnd
  0
BLOCK
  5
60CE
330
60CD
100
AcDbEntity
  8
0
100
AcDbBlockBegin
  2
*D148
 70
     1
 10
0.0
 20
0.0
 30
0.0
  3
*D148
  1

  0
LINE
  5
5DAF
330
60CD
100
AcDbEntity
  8
标注
  6
Continuous
100
AcDbLine
 10
833.7176344350456
 20
145.0904927625958
 30
0.0
 11
851.3133750001134
 21
145.0904927625958
 31
0.0
  0
LINE
  5
5DB0
330
60CD
100
AcDbEntity
  8
标注
  6
Continuous
100
AcDbLine
 10
848.5956856161223
 20
165.8385242585773
 30
0.0
 11
851.3133750001134
 21
165.8385242585773
 31
0.0
  0
LINE
  5
5DB1
330
60CD
100
AcDbEntity
  8
标注
  6
Continuous
100
AcDbLine
 10
850.9933750001135
 20
145.7404927625958
 30
0.0
 11
850.9933750001135
 21
153.2603418439198
 31
0.0
  0
LINE
  5
5DB2
330
60CD
100
AcDbEntity
  8
标注
  6
Continuous
100
AcDbLine
 10
850.9933750001135
 20
165.1885242585773
 30
0.0
 11
850.9933750001135
 21
157.6686751772532
 31
0.0
  0
SOLID
  5
5DB3
330
60CD
100
AcDbEntity
  8
标注
100
AcDbTrace
 10
850.8850416667801
 20
145.7404927625958
 30
0.0
 11
851.1017083334468
 21
145.7404927625958
 31
0.0
 12
850.9933750001135
 22
145.0904927625958
 32
0.0
 13
850.9933750001135
 23
145.0904927625958
 33
0.0
  0
SOLID
  5
5DB4
330
60CD
100
AcDbEntity
  8
标注
100
AcDbTrace
 10
850.8850416667801
 20
165.1885242585773
 30
0.0
 11
851.1017083334468
 21
165.1885242585773
 31
0.0
 12
850.9933750001135
 22
165.8385242585773
 32
0.0
 13
850.9933750001135
 23
165.8385242585773
 33
0.0
  0
INSERT
  5
5DB5
330
60CD
100
AcDbEntity
  8
标注
100
AcDbBlockReference
  2
*U149
 10
0.0
 20
0.0
 30
0.0
  0
POINT
  5
5DB6
330
60CD
100
AcDbEntity
  8
DEFPOINTS
 62
     0
100
AcDbPoint
 10
832.8376344350457
 20
145.0904927625958
 30
0.0
  0
POINT
  5
5DB7
330
60CD
100
AcDbEntity
  8
DEFPOINTS
 62
     0
100
AcDbPoint
 10
847.7156856161222
 20
165.8385242585773
 30
0.0
  0
POINT
  5
5DB8
330
60CD
100
AcDbEntity
  8
DEFPOINTS
 62
     0
100
AcDbPoint
 10
850.9933750001135
 20
165.8385242585773
 30
0.0
  0
ENDBLK
  5
5D9A
330
60CD
100
AcDbEntity
  8
0
100
AcDbBlockEnd
  0
BLOCK
  5
60E8
330
60CF
100
AcDbEntity
  8
0
100
AcDbBlockBegin
  2
*U149
 70
     1
 10
0.0
 20
0.0
 30
0.0
  3
*U149
  1

  0
TEXT
  5
5ED8
330
60CF
100
AcDbEntity
  8
标注
100
AcDbText
 10
851.3183750001134
 20
153.46034184392
 30
0.0
 40
0.65
  1
20 3/4"
 50
90.0
100
AcDbText
  0
ENDBLK
  5
5EDA
330
60CF
100
AcDbEntity
  8
0
100
AcDbBlockEnd
  0
BLOCK
  5
60D1
330
60D0
100
AcDbEntity
  8
0
100
AcDbBlockBegin
  2
*D150
 70
     1
 10
0.0
 20
0.0
 30
0.0
  3
*D150
  1

  0
LINE
  5
5DBC
330
60D0
100
AcDbEntity
  8
标注
  6
Continuous
100
AcDbLine
 10
846.6271816791278
 20
148.33852425865
 30
0.0
 11
849.4452137019832
 21
148.33852425865
 31
0.0
  0
LINE
  5
5DBD
330
60D0
100
AcDbEntity
  8
标注
  6
Continuous
100
AcDbLine
 10
846.6271816791278
 20
164.3385242585846
 30
0.0
 11
849.4452137019832
 21
164.3385242585846
 31
0.0
  0
LINE
  5
5DBE
330
60D0
100
AcDbEntity
  8
标注
  6
Continuous
100
AcDbLine
 10
849.1252137019833
 20
148.98852425865
 30
0.0
 11
849.1252137019833
 21
155.4885242586173
 31
0.0
  0
LINE
  5
5DBF
330
60D0
100
AcDbEntity
  8
标注
  6
Continuous
100
AcDbLine
 10
849.1252137019833
 20
163.6885242585846
 30
0.0
 11
849.1252137019833
 21
157.1885242586173
 31
0.0
  0
SOLID
  5
5DC0
330
60D0
100
AcDbEntity
  8
标注
100
AcDbTrace
 10
849.0168803686499
 20
148.98852425865
 30
0.0
 11
849.2335470353166
 21
148.98852425865
 31
0.0
 12
849.1252137019833
 22
148.33852425865
 32
0.0
 13
849.1252137019833
 23
148.33852425865
 33
0.0
  0
SOLID
  5
5DC1
330
60D0
100
AcDbEntity
  8
标注
100
AcDbTrace
 10
849.0168803686499
 20
163.6885242585846
 30
0.0
 11
849.2335470353166
 21
163.6885242585846
 31
0.0
 12
849.1252137019833
 22
164.3385242585846
 32
0.0
 13
849.1252137019833
 23
164.3385242585846
 33
0.0
  0
INSERT
  5
5DC2
330
60D0
100
AcDbEntity
  8
标注
100
AcDbBlockReference
  2
*U151
 10
0.0
 20
0.0
 30
0.0
  0
POINT
  5
5DC3
330
60D0
100
AcDbEntity
  8
DEFPOINTS
 62
     0
100
AcDbPoint
 10
845.7471816791278
 20
148.33852425865
 30
0.0
  0
POINT
  5
5DC4
330
60D0
100
AcDbEntity
  8
DEFPOINTS
 62
     0
100
AcDbPoint
 10
845.7471816791278
 20
164.3385242585846
 30
0.0
  0
POINT
  5
5DC5
330
60D0
100
AcDbEntity
  8
DEFPOINTS
 62
     0
100
AcDbPoint
 10
849.1252137019833
 20
164.3385242585846
 30
0.0
  0
ENDBLK
  5
5DBB
330
60D0
100
AcDbEntity
  8
0
100
AcDbBlockEnd
  0
BLOCK
  5
60E9
330
60D2
100
AcDbEntity
  8
0
100
AcDbBlockBegin
  2
*U151
 70
     1
 10
0.0
 20
0.0
 30
0.0
  3
*U151
  1

  0
TEXT
  5
5EDC
330
60D2
100
AcDbEntity
  8
标注
100
AcDbText
 10
849.4502137019832
 20
155.6885242586174
 30
0.0
 40
0.65
  1
16"
 50
90.0
100
AcDbText
  0
ENDBLK
  5
5EDE
330
60D2
100
AcDbEntity
  8
0
100
AcDbBlockEnd
  0
BLOCK
  5
60D4
330
60D3
100
AcDbEntity
  8
0
100
AcDbBlockBegin
  2
*D152
 70
     1
 10
0.0
 20
0.0
 30
0.0
  3
*D152
  1

  0
LINE
  5
5DC9
330
60D3
100
AcDbEntity
  8
标注
  6
Continuous
100
AcDbLine
 10
819.3375360099363
 20
148.0490754397498
 30
0.0
 11
819.3375360099363
 21
143.2208698333193
 31
0.0
  0
LINE
  5
5DCA
330
60D3
100
AcDbEntity
  8
标注
  6
Continuous
100
AcDbLine
 10
846.3377328602273
 20
148.0490754397498
 30
0.0
 11
846.3377328602273
 21
143.2208698333193
 31
0.0
  0
LINE
  5
5DCB
330
60D3
100
AcDbEntity
  8
标注
  6
Continuous
100
AcDbLine
 10
819.9875360099364
 20
143.5408698333193
 30
0.0
 11
831.8793011017485
 21
143.5408698333193
 31
0.0
  0
LINE
  5
5DCC
330
60D3
100
AcDbEntity
  8
标注
  6
Continuous
100
AcDbLine
 10
845.6877328602272
 20
143.5408698333193
 30
0.0
 11
833.795967768415
 21
143.5408698333193
 31
0.0
  0
SOLID
  5
5DCD
330
60D3
100
AcDbEntity
  8
标注
100
AcDbTrace
 10
819.9875360099364
 20
143.6492031666526
 30
0.0
 11
819.9875360099364
 21
143.432536499986
 31
0.0
 12
819.3375360099363
 22
143.5408698333193
 32
0.0
 13
819.3375360099363
 23
143.5408698333193
 33
0.0
  0
SOLID
  5
5DCE
330
60D3
100
AcDbEntity
  8
标注
100
AcDbTrace
 10
845.6877328602272
 20
143.6492031666526
 30
0.0
 11
845.6877328602272
 21
143.432536499986
 31
0.0
 12
846.3377328602273
 22
143.5408698333193
 32
0.0
 13
846.3377328602273
 23
143.5408698333193
 33
0.0
  0
INSERT
  5
5DCF
330
60D3
100
AcDbEntity
  8
标注
100
AcDbBlockReference
  2
*U153
 10
0.0
 20
0.0
 30
0.0
  0
POINT
  5
5DD0
330
60D3
100
AcDbEntity
  8
DEFPOINTS
 62
     0
100
AcDbPoint
 10
819.3375360099363
 20
148.9290754397498
 30
0.0
  0
POINT
  5
5DD1
330
60D3
100
AcDbEntity
  8
DEFPOINTS
 62
     0
100
AcDbPoint
 10
846.3377328602273
 20
148.9290754397498
 30
0.0
  0
POINT
  5
5DD2
330
60D3
100
AcDbEntity
  8
DEFPOINTS
 62
     0
100
AcDbPoint
 10
846.3377328602273
 20
143.5408698333193
 30
0.0
  0
ENDBLK
  5
5DC8
330
60D3
100
AcDbEntity
  8
0
100
AcDbBlockEnd
  0
BLOCK
  5
60EA
330
60D5
100
AcDbEntity
  8
0
100
AcDbBlockBegin
  2
*U153
 70
     1
 10
0.0
 20
0.0
 30
0.0
  3
*U153
  1

  0
TEXT
  5
5EE0
330
60D5
100
AcDbEntity
  8
标注
100
AcDbText
 10
832.0793011017483
 20
143.2158698333193
 30
0.0
 40
0.65
  1
27"
100
AcDbText
  0
ENDBLK
  5
5EE2
330
60D5
100
AcDbEntity
  8
0
100
AcDbBlockEnd
  0
BLOCK
  5
60D7
330
60D6
100
AcDbEntity
  8
0
100
AcDbBlockBegin
  2
*D154
 70
     1
 10
0.0
 20
0.0
 30
0.0
  3
*D154
  1

  0
LINE
  5
5DD6
330
60D6
100
AcDbEntity
  8
标注
  6
Continuous
100
AcDbLine
 10
817.9595832473227
 20
144.9585242593115
 30
0.0
 11
817.9595832473227
 21
141.7163267092947
 31
0.0
  0
LINE
  5
5DD7
330
60D6
100
AcDbEntity
  8
标注
  6
Continuous
100
AcDbLine
 10
847.715685622769
 20
144.9585242593115
 30
0.0
 11
847.715685622769
 21
141.7163267092947
 31
0.0
  0
LINE
  5
5DD8
330
60D6
100
AcDbEntity
  8
标注
  6
Continuous
100
AcDbLine
 10
818.6095832473226
 20
142.0363267092947
 30
0.0
 11
830.5793011017126
 21
142.0363267092947
 31
0.0
  0
LINE
  5
5DD9
330
60D6
100
AcDbEntity
  8
标注
  6
Continuous
100
AcDbLine
 10
847.0656856227689
 20
142.0363267092947
 30
0.0
 11
835.0959677683791
 21
142.0363267092947
 31
0.0
  0
SOLID
  5
5DDA
330
60D6
100
AcDbEntity
  8
标注
100
AcDbTrace
 10
818.6095832473226
 20
142.144660042628
 30
0.0
 11
818.6095832473226
 21
141.9279933759614
 31
0.0
 12
817.9595832473227
 22
142.0363267092947
 32
0.0
 13
817.9595832473227
 23
142.0363267092947
 33
0.0
  0
SOLID
  5
5DDB
330
60D6
100
AcDbEntity
  8
标注
100
AcDbTrace
 10
847.0656856227689
 20
142.144660042628
 30
0.0
 11
847.0656856227689
 21
141.9279933759614
 31
0.0
 12
847.715685622769
 22
142.0363267092947
 32
0.0
 13
847.715685622769
 23
142.0363267092947
 33
0.0
  0
INSERT
  5
5DDC
330
60D6
100
AcDbEntity
  8
标注
100
AcDbBlockReference
  2
*U155
 10
0.0
 20
0.0
 30
0.0
  0
POINT
  5
5DDD
330
60D6
100
AcDbEntity
  8
DEFPOINTS
 62
     0
100
AcDbPoint
 10
817.9595832473227
 20
145.8385242593115
 30
0.0
  0
POINT
  5
5DDE
330
60D6
100
AcDbEntity
  8
DEFPOINTS
 62
     0
100
AcDbPoint
 10
847.715685622769
 20
145.8385242593115
 30
0.0
  0
POINT
  5
5DDF
330
60D6
100
AcDbEntity
  8
DEFPOINTS
 62
     0
100
AcDbPoint
 10
847.715685622769
 20
142.0363267092947
 30
0.0
  0
ENDBLK
  5
5DD5
330
60D6
100
AcDbEntity
  8
0
100
AcDbBlockEnd
  0
BLOCK
  5
60EB
330
60D8
100
AcDbEntity
  8
0
100
AcDbBlockBegin
  2
*U155
 70
     1
 10
0.0
 20
0.0
 30
0.0
  3
*U155
  1

  0
TEXT
  5
5EE4
330
60D8
100
AcDbEntity
  8
标注
100
AcDbText
 10
830.7793011017123
 20
141.7113267092947
 30
0.0
 40
0.65
  1
29 3/4"
100
AcDbText
  0
ENDBLK
  5
5EE6
330
60D8
100
AcDbEntity
  8
0
100
AcDbBlockEnd
  0
BLOCK
  5
60DA
330
60D9
100
AcDbEntity
  8
0
100
AcDbBlockBegin
  2
*D156
 70
     1
 10
0.0
 20
0.0
 30
0.0
  3
*D156
  1

  0
LINE
  5
5DE3
330
60D9
100
AcDbEntity
  8
标注
  6
Continuous
100
AcDbLine
 10
819.3158195862967
 20
147.8501428129768
 30
0.0
 11
818.9950154557262
 21
147.2848245753364
 31
0.0
  0
INSERT
  5
5DE4
330
60D9
100
AcDbEntity
  8
标注
100
AcDbBlockReference
  2
*U157
 10
0.0
 20
0.0
 30
0.0
  0
LINE
  5
5DE5
330
60D9
100
AcDbEntity
  8
标注
  6
Continuous
100
AcDbLine
 10
819.9280871910373
 20
148.9290754397499
 30
0.0
 11
819.6366237168673
 21
148.4154610506172
 31
0.0
  0
SOLID
  5
5DE6
330
60D9
100
AcDbEntity
  8
标注
100
AcDbTrace
 10
819.2215998800232
 20
147.9036101680719
 30
0.0
 11
819.4100392925701
 21
147.7966754578817
 31
0.0
 12
819.6366237168673
 22
148.4154610506172
 32
0.0
 13
819.6366237168673
 23
148.4154610506172
 33
0.0
  0
POINT
  5
5DE7
330
60D9
100
AcDbEntity
  8
DEFPOINTS
 62
     0
100
AcDbPoint
 10
819.6366237168673
 20
148.4154610506172
 30
0.0
  0
POINT
  5
5DE8
330
60D9
100
AcDbEntity
  8
DEFPOINTS
 62
     0
100
AcDbPoint
 10
819.9280871910373
 20
148.9290754397499
 30
0.0
  0
ENDBLK
  5
5DE2
330
60D9
100
AcDbEntity
  8
0
100
AcDbBlockEnd
  0
BLOCK
  5
60EC
330
60DB
100
AcDbEntity
  8
0
100
AcDbBlockBegin
  2
*U157
 70
     1
 10
0.0
 20
0.0
 30
0.0
  3
*U157
  1

  0
TEXT
  5
5EE8
330
60DB
100
AcDbEntity
  8
标注
100
AcDbText
 10
820.6596000600811
 20
149.5596395337329
 30
0.0
 40
0.65
  1
R5/8"
 50
60.42616042689906
100
AcDbText
  0
ENDBLK
  5
5EEA
330
60DB
100
AcDbEntity
  8
0
100
AcDbBlockEnd
  0
BLOCK
  5
60DD
330
60DC
100
AcDbEntity
  8
0
100
AcDbBlockBegin
  2
*D158
 70
     1
 10
0.0
 20
0.0
 30
0.0
  3
*D158
  1

  0
LINE
  5
5DEC
330
60DC
100
AcDbEntity
  8
标注
  6
Continuous
100
AcDbLine
 10
847.2964730177057
 20
113.6934803751264
 30
0.0
 11
848.9190133961276
 21
113.6934803751264
 31
0.0
  0
LINE
  5
5DED
330
60DC
100
AcDbEntity
  8
标注
  6
Continuous
100
AcDbLine
 10
846.6271816791136
 20
132.3912590053519
 30
0.0
 11
848.9190133961276
 21
132.3912590053519
 31
0.0
  0
LINE
  5
5DEE
330
60DC
100
AcDbEntity
  8
标注
  6
Continuous
100
AcDbLine
 10
848.5990133961276
 20
114.3434803751264
 30
0.0
 11
848.5990133961276
 21
120.8923696902391
 31
0.0
  0
LINE
  5
5DEF
330
60DC
100
AcDbEntity
  8
标注
  6
Continuous
100
AcDbLine
 10
848.5990133961276
 20
131.7412590053519
 30
0.0
 11
848.5990133961276
 21
125.1923696902391
 31
0.0
  0
SOLID
  5
5DF0
330
60DC
100
AcDbEntity
  8
标注
100
AcDbTrace
 10
848.4906800627943
 20
114.3434803751264
 30
0.0
 11
848.7073467294607
 21
114.3434803751264
 31
0.0
 12
848.5990133961276
 22
113.6934803751264
 32
0.0
 13
848.5990133961276
 23
113.6934803751264
 33
0.0
  0
SOLID
  5
5DF1
330
60DC
100
AcDbEntity
  8
标注
100
AcDbTrace
 10
848.4906800627943
 20
131.7412590053519
 30
0.0
 11
848.7073467294607
 21
131.7412590053519
 31
0.0
 12
848.5990133961276
 22
132.3912590053519
 32
0.0
 13
848.5990133961276
 23
132.3912590053519
 33
0.0
  0
INSERT
  5
5DF2
330
60DC
100
AcDbEntity
  8
标注
100
AcDbBlockReference
  2
*U159
 10
0.0
 20
0.0
 30
0.0
  0
POINT
  5
5DF3
330
60DC
100
AcDbEntity
  8
DEFPOINTS
 62
     0
100
AcDbPoint
 10
846.4164730177056
 20
113.6934803751264
 30
0.0
  0
POINT
  5
5DF4
330
60DC
100
AcDbEntity
  8
DEFPOINTS
 62
     0
100
AcDbPoint
 10
845.7471816791136
 20
132.3912590053519
 30
0.0
  0
POINT
  5
5DF5
330
60DC
100
AcDbEntity
  8
DEFPOINTS
 62
     0
100
AcDbPoint
 10
848.5990133961276
 20
132.3912590053519
 30
0.0
  0
ENDBLK
  5
5DEB
330
60DC
100
AcDbEntity
  8
0
100
AcDbBlockEnd
  0
BLOCK
  5
60ED
330
60DE
100
AcDbEntity
  8
0
100
AcDbBlockBegin
  2
*U159
 70
     1
 10
0.0
 20
0.0
 30
0.0
  3
*U159
  1

  0
TEXT
  5
5EEC
330
60DE
100
AcDbEntity
  8
标注
100
AcDbText
 10
848.9240133961272
 20
121.0923696902393
 30
0.0
 40
0.65
  1
18 3/4"
 50
90.0
100
AcDbText
  0
ENDBLK
  5
5EEE
330
60DE
100
AcDbEntity
  8
0
100
AcDbBlockEnd
  0
BLOCK
  5
60E0
330
60DF
100
AcDbEntity
  8
0
100
AcDbBlockBegin
  2
*D160
 70
     1
 10
0.0
 20
0.0
 30
0.0
  3
*D160
  1

  0
LINE
  5
5DF9
330
60DF
100
AcDbEntity
  8
标注
  6
Continuous
100
AcDbLine
 10
819.2587958524585
 20
112.8134803751191
 30
0.0
 11
819.2587958524585
 21
111.3981151706497
 31
0.0
  0
LINE
  5
5DFA
330
60DF
100
AcDbEntity
  8
标注
  6
Continuous
100
AcDbLine
 10
846.4164730177056
 20
112.8134803751264
 30
0.0
 11
846.4164730177056
 21
111.3981151706497
 31
0.0
  0
LINE
  5
5DFB
330
60DF
100
AcDbEntity
  8
标注
  6
Continuous
100
AcDbLine
 10
819.9087958524582
 20
111.7181151706497
 30
0.0
 11
830.6876344350822
 21
111.7181151706497
 31
0.0
  0
LINE
  5
5DFC
330
60DF
100
AcDbEntity
  8
标注
  6
Continuous
100
AcDbLine
 10
845.7664730177057
 20
111.7181151706497
 30
0.0
 11
834.9876344350821
 21
111.7181151706497
 31
0.0
  0
INSERT
  5
5DFD
330
60DF
100
AcDbEntity
  8
标注
100
AcDbBlockReference
  2
*U161
 10
0.0
 20
0.0
 30
0.0
  0
SOLID
  5
5DFE
330
60DF
100
AcDbEntity
  8
标注
100
AcDbTrace
 10
819.9087958524582
 20
111.826448503983
 30
0.0
 11
819.9087958524582
 21
111.6097818373163
 31
0.0
 12
819.2587958524585
 22
111.7181151706497
 32
0.0
 13
819.2587958524585
 23
111.7181151706497
 33
0.0
  0
SOLID
  5
5DFF
330
60DF
100
AcDbEntity
  8
标注
100
AcDbTrace
 10
845.7664730177057
 20
111.826448503983
 30
0.0
 11
845.7664730177057
 21
111.6097818373163
 31
0.0
 12
846.4164730177056
 22
111.7181151706497
 32
0.0
 13
846.4164730177056
 23
111.7181151706497
 33
0.0
  0
POINT
  5
5E00
330
60DF
100
AcDbEntity
  8
DEFPOINTS
 62
     0
100
AcDbPoint
 10
819.2587958524585
 20
113.6934803751191
 30
0.0
  0
POINT
  5
5E01
330
60DF
100
AcDbEntity
  8
DEFPOINTS
 62
     0
100
AcDbPoint
 10
846.4164730177056
 20
113.6934803751264
 30
0.0
  0
POINT
  5
5E02
330
60DF
100
AcDbEntity
  8
DEFPOINTS
 62
     0
100
AcDbPoint
 10
846.4164730177056
 20
111.7181151706497
 30
0.0
  0
ENDBLK
  5
5DF8
330
60DF
100
AcDbEntity
  8
0
100
AcDbBlockEnd
  0
BLOCK
  5
60EE
330
60E1
100
AcDbEntity
  8
0
100
AcDbBlockBegin
  2
*U161
 70
     1
 10
0.0
 20
0.0
 30
0.0
  3
*U161
  1

  0
TEXT
  5
5EF0
330
60E1
100
AcDbEntity
  8
标注
100
AcDbText
 10
830.8876344350819
 20
111.3931151706497
 30
0.0
 40
0.65
  1
27 1/8"
100
AcDbText
  0
ENDBLK
  5
5EF2
330
60E1
100
AcDbEntity
  8
0
100
AcDbBlockEnd
  0
BLOCK
  5
60E3
330
60E2
100
AcDbEntity
  8
0
100
AcDbBlockBegin
  2
*D162
 70
     1
 10
0.0
 20
0.0
 30
0.0
  3
*D162
  1

  0
LINE
  5
5E06
330
60E2
100
AcDbEntity
  8
标注
  6
Continuous
100
AcDbLine
 10
848.6334280700134
 20
174.442067601025
 30
0.0
 11
851.2450995800023
 21
174.442067601025
 31
0.0
  0
LINE
  5
5E07
330
60E2
100
AcDbEntity
  8
标注
  6
Continuous
100
AcDbLine
 10
848.5956856161223
 20
183.4264891069961
 30
0.0
 11
851.2450995800023
 21
183.4264891069961
 31
0.0
  0
LINE
  5
5E08
330
60E2
100
AcDbEntity
  8
标注
  6
Continuous
100
AcDbLine
 10
850.9250995800023
 20
175.092067601025
 30
0.0
 11
850.9250995800023
 21
178.7229620319424
 31
0.0
  0
LINE
  5
5E09
330
60E2
100
AcDbEntity
  8
标注
  6
Continuous
100
AcDbLine
 10
850.9250995800023
 20
182.7764891069961
 30
0.0
 11
850.9250995800023
 21
179.9896286986091
 31
0.0
  0
INSERT
  5
5E0A
330
60E2
100
AcDbEntity
  8
标注
100
AcDbBlockReference
  2
*U163
 10
0.0
 20
0.0
 30
0.0
  0
SOLID
  5
5E0B
330
60E2
100
AcDbEntity
  8
标注
100
AcDbTrace
 10
850.8167662466687
 20
175.092067601025
 30
0.0
 11
851.0334329133355
 21
175.092067601025
 31
0.0
 12
850.9250995800023
 22
174.442067601025
 32
0.0
 13
850.9250995800023
 23
174.442067601025
 33
0.0
  0
SOLID
  5
5E0C
330
60E2
100
AcDbEntity
  8
标注
100
AcDbTrace
 10
850.8167662466687
 20
182.7764891069961
 30
0.0
 11
851.0334329133355
 21
182.7764891069961
 31
0.0
 12
850.9250995800023
 22
183.4264891069961
 32
0.0
 13
850.9250995800023
 23
183.4264891069961
 33
0.0
  0
POINT
  5
5E0D
330
60E2
100
AcDbEntity
  8
DEFPOINTS
 62
     0
100
AcDbPoint
 10
847.7534280700137
 20
174.442067601025
 30
0.0
  0
POINT
  5
5E0E
330
60E2
100
AcDbEntity
  8
DEFPOINTS
 62
     0
100
AcDbPoint
 10
847.7156856161222
 20
183.4264891069961
 30
0.0
  0
POINT
  5
5E0F
330
60E2
100
AcDbEntity
  8
DEFPOINTS
 62
     0
100
AcDbPoint
 10
850.9250995800023
 20
183.4264891069961
 30
0.0
  0
ENDBLK
  5
5E05
330
60E2
100
AcDbEntity
  8
0
100
AcDbBlockEnd
  0
BLOCK
  5
60EF
330
60E4
100
AcDbEntity
  8
0
100
AcDbBlockBegin
  2
*U163
 70
     1
 10
0.0
 20
0.0
 30
0.0
  3
*U163
  1

  0
TEXT
  5
5EF4
330
60E4
100
AcDbEntity
  8
标注
100
AcDbText
 10
851.2500995800023
 20
178.9229620319425
 30
0.0
 40
0.65
  1
9"
 50
90.0
100
AcDbText
  0
ENDBLK
  5
5EF6
330
60E4
100
AcDbEntity
  8
0
100
AcDbBlockEnd
  0
BLOCK
  5
60E6
330
60E5
100
AcDbEntity
  8
0
100
AcDbBlockBegin
  2
*D164
 70
     1
 10
0.0
 20
0.0
 30
0.0
  3
*D164
  1

  0
LINE
  5
5E13
330
60E5
100
AcDbEntity
  8
标注
  6
Continuous
100
AcDbLine
 10
848.5956856161223
 20
175.4264891070252
 30
0.0
 11
849.7795789118967
 21
175.4264891070252
 31
0.0
  0
LINE
  5
5E14
330
60E5
100
AcDbEntity
  8
标注
  6
Continuous
100
AcDbLine
 10
848.5956856161223
 20
183.4264891069961
 30
0.0
 11
849.7795789118967
 21
183.4264891069961
 31
0.0
  0
LINE
  5
5E15
330
60E5
100
AcDbEntity
  8
标注
  6
Continuous
100
AcDbLine
 10
849.4595789118966
 20
176.0764891070252
 30
0.0
 11
849.4595789118966
 21
178.7931557736773
 31
0.0
  0
LINE
  5
5E16
330
60E5
100
AcDbEntity
  8
标注
  6
Continuous
100
AcDbLine
 10
849.4595789118966
 20
182.7764891069961
 30
0.0
 11
849.4595789118966
 21
180.0598224403439
 31
0.0
  0
SOLID
  5
5E17
330
60E5
100
AcDbEntity
  8
标注
100
AcDbTrace
 10
849.3512455785632
 20
176.0764891070252
 30
0.0
 11
849.5679122452298
 21
176.0764891070252
 31
0.0
 12
849.4595789118966
 22
175.4264891070252
 32
0.0
 13
849.4595789118966
 23
175.4264891070252
 33
0.0
  0
SOLID
  5
5E18
330
60E5
100
AcDbEntity
  8
标注
100
AcDbTrace
 10
849.3512455785632
 20
182.7764891069961
 30
0.0
 11
849.5679122452298
 21
182.7764891069961
 31
0.0
 12
849.4595789118966
 22
183.4264891069961
 32
0.0
 13
849.4595789118966
 23
183.4264891069961
 33
0.0
  0
INSERT
  5
5E19
330
60E5
100
AcDbEntity
  8
标注
100
AcDbBlockReference
  2
*U165
 10
0.0
 20
0.0
 30
0.0
  0
POINT
  5
5E1A
330
60E5
100
AcDbEntity
  8
DEFPOINTS
 62
     0
100
AcDbPoint
 10
847.7156856161222
 20
175.4264891070252
 30
0.0
  0
POINT
  5
5E1B
330
60E5
100
AcDbEntity
  8
DEFPOINTS
 62
     0
100
AcDbPoint
 10
847.7156856161222
 20
183.4264891069961
 30
0.0
  0
POINT
  5
5E1C
330
60E5
100
AcDbEntity
  8
DEFPOINTS
 62
     0
100
AcDbPoint
 10
849.4595789118966
 20
183.4264891069961
 30
0.0
  0
ENDBLK
  5
5E12
330
60E5
100
AcDbEntity
  8
0
100
AcDbBlockEnd
  0
BLOCK
  5
60F0
330
60E7
100
AcDbEntity
  8
0
100
AcDbBlockBegin
  2
*U165
 70
     1
 10
0.0
 20
0.0
 30
0.0
  3
*U165
  1

  0
TEXT
  5
5EF8
330
60E7
100
AcDbEntity
  8
标注
100
AcDbText
 10
849.7845789118963
 20
178.9931557736774
 30
0.0
 40
0.65
  1
8"
 50
90.0
100
AcDbText
  0
ENDBLK
  5
5EFA
330
60E7
100
AcDbEntity
  8
0
100
AcDbBlockEnd
  0
BLOCK
  5
6368
330
6367
100
AcDbEntity
  8
0
100
AcDbBlockBegin
  2
*D187
 70
     1
 10
0.0
 20
0.0
 30
0.0
  3
*D187
  1

  0
ARC
  5
659B
330
6367
100
AcDbEntity
  8
标注
  6
Continuous
 62
     3
370
    13
100
AcDbCircle
 10
917.0766425871791
 20
189.3507668936786
 30
0.0
 40
2.274130749127416
100
AcDbArc
 50
196.432743533794
 51
206.5211549833903
  0
ARC
  5
659C
330
6367
100
AcDbEntity
  8
标注
  6
Continuous
 62
     3
370
    13
100
AcDbCircle
 10
917.0766425871791
 20
189.3507668936786
 30
0.0
 40
2.274130749127416
100
AcDbArc
 50
243.8633230662567
 51
249.5621670877044
  0
SOLID
  5
659D
330
6367
100
AcDbEntity
  8
标注
 62
     3
100
AcDbTrace
 10
914.7881831352483
 20
188.6919567545739
 30
0.0
 11
915.0026258129473
 21
188.7229209665893
 31
0.0
 12
914.8025118380518
 22
189.3507668936785
 32
0.0
 13
914.8025118380518
 23
189.3507668936785
 33
0.0
  0
SOLID
  5
659E
330
6367
100
AcDbEntity
  8
标注
 62
     3
100
AcDbTrace
 10
916.3054700791688
 20
187.325667130495
 30
0.0
 11
916.2596037196699
 21
187.1139108519322
 31
0.0
 12
916.9178057351075
 22
187.0821899127166
 32
0.0
 13
916.9178057351075
 23
187.0821899127166
 33
0.0
  0
MTEXT
  5
659F
330
6367
100
AcDbEntity
  8
标注
 62
     3
100
AcDbMText
 10
915.4739937009502
 20
187.7373273343532
 30
0.0
 40
0.65
 41
0.0
 71
     5
 72
     1
  1
\A1;86\U+00B0
 11
0.7094752841033168
 21
-0.7047303180980071
 31
0.0
 73
     1
 44
1.0
1001
ACAD
1000
MTEXTBEGIN
1070
    73
1070
     1
1070
    44
1040
1.0
1070
    74
1070
     0
1000
MTEXTEND
  0
POINT
  5
65A0
330
6367
100
AcDbEntity
  8
DEFPOINTS
 62
     0
100
AcDbPoint
 10
915.0812302093575
 20
188.2598956333722
 30
0.0
  0
POINT
  5
65A1
330
6367
100
AcDbEntity
  8
DEFPOINTS
 62
     0
100
AcDbPoint
 10
917.0702325680096
 20
189.2592162129281
 30
0.0
  0
POINT
  5
65A2
330
6367
100
AcDbEntity
  8
DEFPOINTS
 62
     0
100
AcDbPoint
 10
886.9848677787151
 20
189.3507668936786
 30
0.0
  0
POINT
  5
65A3
330
6367
100
AcDbEntity
  8
DEFPOINTS
 62
     0
100
AcDbPoint
 10
917.168417395783
 20
189.3507668936786
 30
0.0
  0
POINT
  5
65A4
330
6367
100
AcDbEntity
  8
DEFPOINTS
 62
     0
100
AcDbPoint
 10
916.4767088747387
 20
180.7822527711966
 30
0.0
  0
ENDBLK
  5
6369
330
6367
100
AcDbEntity
  8
0
100
AcDbBlockEnd
  0
BLOCK
  5
6491
330
6490
100
AcDbEntity
  8
0
100
AcDbBlockBegin
  2
*D191
 70
     1
 10
0.0
 20
0.0
 30
0.0
  3
*D191
  1

  0
LINE
  5
64D1
330
6490
100
AcDbEntity
  8
标注
370
    -2
100
AcDbLine
 10
887.0766425873073
 20
148.0191911201142
 30
0.0
 11
887.0766425873073
 21
145.8111000468652
 31
0.0
  0
LINE
  5
64D2
330
6490
100
AcDbEntity
  8
标注
370
    -2
100
AcDbLine
 10
917.0766425871716
 20
148.0191911201334
 30
0.0
 11
917.0766425871716
 21
145.8111000468652
 31
0.0
  0
LINE
  5
64D3
330
6490
100
AcDbEntity
  8
标注
370
    -2
100
AcDbLine
 10
887.7266425873072
 20
146.1311000468652
 30
0.0
 11
901.1508069801454
 21
146.1311000468652
 31
0.0
  0
LINE
  5
64D4
330
6490
100
AcDbEntity
  8
标注
370
    -2
100
AcDbLine
 10
916.4266425871717
 20
146.1311000468652
 30
0.0
 11
903.0024781943337
 21
146.1311000468652
 31
0.0
  0
SOLID
  5
64D5
330
6490
100
AcDbEntity
  8
标注
100
AcDbTrace
 10
887.7266425873072
 20
146.2394333801985
 30
0.0
 11
887.7266425873072
 21
146.0227667135319
 31
0.0
 12
887.0766425873073
 22
146.1311000468652
 32
0.0
 13
887.0766425873073
 23
146.1311000468652
 33
0.0
  0
SOLID
  5
64D6
330
6490
100
AcDbEntity
  8
标注
100
AcDbTrace
 10
916.4266425871717
 20
146.2394333801985
 30
0.0
 11
916.4266425871717
 21
146.0227667135319
 31
0.0
 12
917.0766425871716
 22
146.1311000468652
 32
0.0
 13
917.0766425871716
 23
146.1311000468652
 33
0.0
  0
MTEXT
  5
64D7
330
6490
100
AcDbEntity
  8
标注
100
AcDbMText
 10
902.0766425872395
 20
146.1311000468652
 30
0.0
 40
0.65
 41
0.0
 71
     5
 72
     1
  1
\A1;30"
 73
     1
 44
1.0
1001
ACAD
1000
MTEXTBEGIN
1070
    73
1070
     1
1070
    44
1040
1.0
1070
    74
1070
     0
1000
MTEXTEND
  0
POINT
  5
64D8
330
6490
100
AcDbEntity
  8
DEFPOINTS
 62
     0
100
AcDbPoint
 10
887.0766425873073
 20
148.8991911201142
 30
0.0
  0
POINT
  5
64D9
330
6490
100
AcDbEntity
  8
DEFPOINTS
 62
     0
100
AcDbPoint
 10
917.0766425871716
 20
148.8991911201334
 30
0.0
  0
POINT
  5
64DA
330
6490
100
AcDbEntity
  8
DEFPOINTS
 62
     0
100
AcDbPoint
 10
917.0766425871716
 20
146.1311000468652
 30
0.0
  0
ENDBLK
  5
6492
330
6490
100
AcDbEntity
  8
0
100
AcDbBlockEnd
  0
BLOCK
  5
649F
330
649E
100
AcDbEntity
  8
0
100
AcDbBlockBegin
  2
*D192
 70
     1
 10
0.0
 20
0.0
 30
0.0
  3
*D192
  1

  0
LINE
  5
64DB
330
649E
100
AcDbEntity
  8
标注
370
    -2
100
AcDbLine
 10
886.0766425873054
 20
147.4730662037651
 30
0.0
 11
886.0766425873054
 21
143.981002843118
 31
0.0
  0
LINE
  5
64DC
330
649E
100
AcDbEntity
  8
标注
370
    -2
100
AcDbLine
 10
918.0766425871908
 20
147.4730662037651
 30
0.0
 11
918.0766425871908
 21
143.981002843118
 31
0.0
  0
LINE
  5
64DD
330
649E
100
AcDbEntity
  8
标注
370
    -2
100
AcDbLine
 10
886.7266425873053
 20
144.301002843118
 30
0.0
 11
901.1508069801541
 21
144.301002843118
 31
0.0
  0
LINE
  5
64DE
330
649E
100
AcDbEntity
  8
标注
370
    -2
100
AcDbLine
 10
917.4266425871909
 20
144.301002843118
 30
0.0
 11
903.0024781943422
 21
144.301002843118
 31
0.0
  0
SOLID
  5
64DF
330
649E
100
AcDbEntity
  8
标注
100
AcDbTrace
 10
886.7266425873053
 20
144.4093361764513
 30
0.0
 11
886.7266425873053
 21
144.1926695097846
 31
0.0
 12
886.0766425873054
 22
144.301002843118
 32
0.0
 13
886.0766425873054
 23
144.301002843118
 33
0.0
  0
SOLID
  5
64E0
330
649E
100
AcDbEntity
  8
标注
100
AcDbTrace
 10
917.4266425871909
 20
144.4093361764513
 30
0.0
 11
917.4266425871909
 21
144.1926695097846
 31
0.0
 12
918.0766425871908
 22
144.301002843118
 32
0.0
 13
918.0766425871908
 23
144.301002843118
 33
0.0
  0
MTEXT
  5
64E1
330
649E
100
AcDbEntity
  8
标注
100
AcDbMText
 10
902.0766425872482
 20
144.301002843118
 30
0.0
 40
0.65
 41
0.0
 71
     5
 72
     1
  1
\A1;32"
 73
     1
 44
1.0
1001
ACAD
1000
MTEXTBEGIN
1070
    73
1070
     1
1070
    44
1040
1.0
1070
    74
1070
     0
1000
MTEXTEND
  0
POINT
  5
64E2
330
649E
100
AcDbEntity
  8
DEFPOINTS
 62
     0
100
AcDbPoint
 10
886.0766425873054
 20
148.3530662037651
 30
0.0
  0
POINT
  5
64E3
330
649E
100
AcDbEntity
  8
DEFPOINTS
 62
     0
100
AcDbPoint
 10
918.0766425871908
 20
148.3530662037651
 30
0.0
  0
POINT
  5
64E4
330
649E
100
AcDbEntity
  8
DEFPOINTS
 62
     0
100
AcDbPoint
 10
918.0766425871908
 20
144.301002843118
 30
0.0
  0
ENDBLK
  5
64A0
330
649E
100
AcDbEntity
  8
0
100
AcDbBlockEnd
  0
BLOCK
  5
64AD
330
64AC
100
AcDbEntity
  8
0
100
AcDbBlockBegin
  2
*D193
 70
     1
 10
0.0
 20
0.0
 30
0.0
  3
*D193
  1

  0
LINE
  5
64E5
330
64AC
100
AcDbEntity
  8
标注
370
    -2
100
AcDbLine
 10
917.5629417997717
 20
148.5054903327142
 30
0.0
 11
920.1332980146004
 21
148.5054903327142
 31
0.0
  0
LINE
  5
64E6
330
64AC
100
AcDbEntity
  8
标注
370
    -2
100
AcDbLine
 10
917.5629417997717
 20
164.5054903326659
 30
0.0
 11
920.1332980146004
 21
164.5054903326659
 31
0.0
  0
LINE
  5
64E7
330
64AC
100
AcDbEntity
  8
标注
370
    -2
100
AcDbLine
 10
919.8132980146004
 20
149.1554903327142
 30
0.0
 11
919.8132980146004
 21
155.6100264854868
 31
0.0
  0
LINE
  5
64E8
330
64AC
100
AcDbEntity
  8
标注
370
    -2
100
AcDbLine
 10
919.8132980146004
 20
163.8554903326659
 30
0.0
 11
919.8132980146004
 21
157.4009541798933
 31
0.0
  0
SOLID
  5
64E9
330
64AC
100
AcDbEntity
  8
标注
100
AcDbTrace
 10
919.704964681267
 20
149.1554903327142
 30
0.0
 11
919.9216313479338
 21
149.1554903327142
 31
0.0
 12
919.8132980146004
 22
148.5054903327142
 32
0.0
 13
919.8132980146004
 23
148.5054903327142
 33
0.0
  0
SOLID
  5
64EA
330
64AC
100
AcDbEntity
  8
标注
100
AcDbTrace
 10
919.704964681267
 20
163.8554903326659
 30
0.0
 11
919.9216313479338
 21
163.8554903326659
 31
0.0
 12
919.8132980146004
 22
164.5054903326659
 32
0.0
 13
919.8132980146004
 23
164.5054903326659
 33
0.0
  0
MTEXT
  5
64EB
330
64AC
100
AcDbEntity
  8
标注
100
AcDbMText
 10
919.8132980146004
 20
156.5054903326902
 30
0.0
 40
0.65
 41
0.0
 71
     5
 72
     1
  1
\A1;16"
 11
0.0000000000000001
 21
1.0
 31
0.0
 73
     1
 44
1.0
1001
ACAD
1000
MTEXTBEGIN
1070
    73
1070
     1
1070
    44
1040
1.0
1070
    74
1070
     0
1000
MTEXTEND
  0
POINT
  5
64EC
330
64AC
100
AcDbEntity
  8
DEFPOINTS
 62
     0
100
AcDbPoint
 10
916.6829417997716
 20
148.5054903327142
 30
0.0
  0
POINT
  5
64ED
330
64AC
100
AcDbEntity
  8
DEFPOINTS
 62
     0
100
AcDbPoint
 10
916.6829417997716
 20
164.5054903326659
 30
0.0
  0
POINT
  5
64EE
330
64AC
100
AcDbEntity
  8
DEFPOINTS
 62
     0
100
AcDbPoint
 10
919.8132980146004
 20
164.5054903326659
 30
0.0
  0
ENDBLK
  5
64AE
330
64AC
100
AcDbEntity
  8
0
100
AcDbBlockEnd
  0
BLOCK
  5
64BB
330
64BA
100
AcDbEntity
  8
0
100
AcDbBlockBegin
  2
*D194
 70
     1
 10
0.0
 20
0.0
 30
0.0
  3
*D194
  1

  0
LINE
  5
64EF
330
64BA
100
AcDbEntity
  8
标注
370
    -2
100
AcDbLine
 10
917.9566425871717
 20
147.5054903327241
 30
0.0
 11
921.8385378403205
 21
147.5054903327241
 31
0.0
  0
LINE
  5
64F0
330
64BA
100
AcDbEntity
  8
标注
370
    -2
100
AcDbLine
 10
917.9566425871717
 20
165.5054903326368
 30
0.0
 11
921.8385378403205
 21
165.5054903326368
 31
0.0
  0
LINE
  5
64F1
330
64BA
100
AcDbEntity
  8
标注
370
    -2
100
AcDbLine
 10
921.5185378403203
 20
148.1554903327241
 30
0.0
 11
921.5185378403203
 21
155.6100264854772
 31
0.0
  0
LINE
  5
64F2
330
64BA
100
AcDbEntity
  8
标注
370
    -2
100
AcDbLine
 10
921.5185378403203
 20
164.8554903326368
 30
0.0
 11
921.5185378403203
 21
157.4009541798837
 31
0.0
  0
SOLID
  5
64F3
330
64BA
100
AcDbEntity
  8
标注
100
AcDbTrace
 10
921.410204506987
 20
148.1554903327241
 30
0.0
 11
921.6268711736537
 21
148.1554903327241
 31
0.0
 12
921.5185378403203
 22
147.5054903327241
 32
0.0
 13
921.5185378403203
 23
147.5054903327241
 33
0.0
  0
SOLID
  5
64F4
330
64BA
100
AcDbEntity
  8
标注
100
AcDbTrace
 10
921.410204506987
 20
164.8554903326368
 30
0.0
 11
921.6268711736537
 21
164.8554903326368
 31
0.0
 12
921.5185378403203
 22
165.5054903326368
 32
0.0
 13
921.5185378403203
 23
165.5054903326368
 33
0.0
  0
MTEXT
  5
64F5
330
64BA
100
AcDbEntity
  8
标注
100
AcDbMText
 10
921.5185378403203
 20
156.5054903326806
 30
0.0
 40
0.65
 41
0.0
 71
     5
 72
     1
  1
\A1;18"
 11
0.0000000000000001
 21
1.0
 31
0.0
 73
     1
 44
1.0
1001
ACAD
1000
MTEXTBEGIN
1070
    73
1070
     1
1070
    44
1040
1.0
1070
    74
1070
     0
1000
MTEXTEND
  0
POINT
  5
64F6
330
64BA
100
AcDbEntity
  8
DEFPOINTS
 62
     0
100
AcDbPoint
 10
917.0766425871716
 20
147.5054903327241
 30
0.0
  0
POINT
  5
64F7
330
64BA
100
AcDbEntity
  8
DEFPOINTS
 62
     0
100
AcDbPoint
 10
917.0766425871716
 20
165.5054903326368
 30
0.0
  0
POINT
  5
64F8
330
64BA
100
AcDbEntity
  8
DEFPOINTS
 62
     0
100
AcDbPoint
 10
921.5185378403203
 20
165.5054903326368
 30
0.0
  0
ENDBLK
  5
64BC
330
64BA
100
AcDbEntity
  8
0
100
AcDbBlockEnd
  0
BLOCK
  5
64C9
330
64C8
100
AcDbEntity
  8
0
100
AcDbBlockBegin
  2
*D195
 70
     1
 10
0.0
 20
0.0
 30
0.0
  3
*D195
  1

  0
LINE
  5
6509
330
64C8
100
AcDbEntity
  8
标注
370
    -2
100
AcDbLine
 10
888.1911173139215
 20
163.3569410424634
 30
0.0
 11
888.6400036864834
 21
162.8868335818458
 31
0.0
  0
MTEXT
  5
650A
330
64C8
100
AcDbEntity
  8
标注
100
AcDbMText
 10
889.4466144063876
 20
162.0420903674844
 30
0.0
 40
0.65
 41
0.0
 71
     5
 72
     1
  1
\A1;R3/8"
 11
0.6905944193258154
 21
-0.7232422471039978
 31
0.0
 73
     1
 44
1.0
1001
ACAD
1000
MTEXTBEGIN
1070
    73
1070
     1
1070
    44
1040
1.0
1070
    74
1070
     0
1000
MTEXTEND
  0
LINE
  5
650B
330
64C8
100
AcDbEntity
  8
标注
370
    -2
100
AcDbLine
 10
887.4703433746972
 20
164.1117895452467
 30
0.0
 11
887.7422309413598
 21
163.827048503081
 31
0.0
  0
SOLID
  5
650C
330
64C8
100
AcDbEntity
  8
标注
100
AcDbTrace
 10
888.2694685573579
 20
163.4317554378904
 30
0.0
 11
888.1127660704853
 21
163.2821266470366
 31
0.0
 12
887.7422309413598
 22
163.827048503081
 32
0.0
 13
887.7422309413598
 23
163.827048503081
 33
0.0
  0
ARC
  5
650D
330
64C8
100
AcDbEntity
  8
标注
370
    -2
100
AcDbCircle
 10
887.4703433746972
 20
164.1117895452467
 30
0.0
 40
0.3937007873998368
100
AcDbArc
 50
180.0
 51
0.247190331805216
  0
POINT
  5
650E
330
64C8
100
AcDbEntity
  8
DEFPOINTS
 62
     0
100
AcDbPoint
 10
887.7422309413598
 20
163.827048503081
 30
0.0
  0
POINT
  5
650F
330
64C8
100
AcDbEntity
  8
DEFPOINTS
 62
     0
100
AcDbPoint
 10
887.4703433746972
 20
164.1117895452467
 30
0.0
  0
ENDBLK
  5
64CA
330
64C8
100
AcDbEntity
  8
0
100
AcDbBlockEnd
  0
BLOCK
  5
6501
330
6500
100
AcDbEntity
  8
0
100
AcDbBlockBegin
  2
*D196
 70
     1
 10
0.0
 20
0.0
 30
0.0
  3
*D196
  1

  0
LINE
  5
651A
330
6500
100
AcDbEntity
  8
标注
370
    -2
100
AcDbLine
 10
888.8331051434265
 20
181.521043239246
 30
0.0
 11
889.3087809330639
 21
181.964024664537
 31
0.0
  0
MTEXT
  5
651B
330
6500
100
AcDbEntity
  8
标注
100
AcDbMText
 10
889.2930494615928
 20
181.9493744557057
 30
0.0
 40
0.65
 41
0.0
 71
     5
 72
     1
  1
\A1;R3/8"
 11
0.731808907134358
 21
0.681509885063171
 31
0.0
 73
     1
 44
1.0
1001
ACAD
1000
MTEXTBEGIN
1070
    73
1070
     1
1070
    44
1040
1.0
1070
    74
1070
     0
1000
MTEXTEND
  0
LINE
  5
651C
330
6500
100
AcDbEntity
  8
标注
370
    -2
100
AcDbLine
 10
888.0693156108241
 20
180.8097508355846
 30
0.0
 11
888.3574293537892
 21
181.0780618139549
 31
0.0
  0
SOLID
  5
651D
330
6500
100
AcDbEntity
  8
标注
100
AcDbTrace
 10
888.759274905878
 20
181.600322537519
 30
0.0
 11
888.9069353809752
 21
181.4417639409731
 31
0.0
 12
888.3574293537892
 22
181.0780618139549
 32
0.0
 13
888.3574293537892
 23
181.0780618139549
 33
0.0
  0
ARC
  5
651E
330
6500
100
AcDbEntity
  8
标注
370
    -2
100
AcDbCircle
 10
888.0693156108241
 20
180.8097508355846
 30
0.0
 40
0.393700787400121
100
AcDbArc
 50
269.3641264640679
 51
89.53175334176794
  0
POINT
  5
651F
330
6500
100
AcDbEntity
  8
DEFPOINTS
 62
     0
100
AcDbPoint
 10
888.3574293537892
 20
181.0780618139549
 30
0.0
  0
POINT
  5
6520
330
6500
100
AcDbEntity
  8
DEFPOINTS
 62
     0
100
AcDbPoint
 10
888.0693156108241
 20
180.8097508355846
 30
0.0
  0
ENDBLK
  5
6502
330
6500
100
AcDbEntity
  8
0
100
AcDbBlockEnd
  0
BLOCK
  5
6512
330
6511
100
AcDbEntity
  8
0
100
AcDbBlockBegin
  2
*D197
 70
     1
 10
0.0
 20
0.0
 30
0.0
  3
*D197
  1

  0
LINE
  5
6514
330
6511
100
AcDbEntity
  8
标注
370
    -2
100
AcDbLine
 10
886.6401425266429
 20
164.7443066481846
 30
0.0
 11
886.1231068419426
 21
165.1382280880004
 31
0.0
  0
MTEXT
  5
6515
330
6511
100
AcDbEntity
  8
标注
100
AcDbMText
 10
889.1019894827174
 20
162.442202781051
 30
0.0
 40
0.65
 41
0.0
 71
     5
 72
     1
  1
\A1;R3/8"
 11
0.7954395149233493
 21
-0.6060329843321292
 31
0.0
 73
     1
 44
1.0
1001
ACAD
1000
MTEXTBEGIN
1070
    73
1070
     1
1070
    44
1040
1.0
1070
    74
1070
     0
1000
MTEXTEND
  0
LINE
  5
6516
330
6511
100
AcDbEntity
  8
标注
370
    -2
100
AcDbLine
 10
887.4703433746976
 20
164.1117895452465
 30
0.0
 11
887.1571782113431
 21
164.3503852083686
 31
0.0
  0
SOLID
  5
6517
330
6511
100
AcDbEntity
  8
标注
100
AcDbTrace
 10
886.7057960999455
 20
164.8304792623012
 30
0.0
 11
886.5744889533401
 21
164.6581340340679
 31
0.0
 12
887.1571782113431
 22
164.3503852083686
 32
0.0
 13
887.1571782113431
 23
164.3503852083686
 33
0.0
  0
POINT
  5
6518
330
6511
100
AcDbEntity
  8
DEFPOINTS
 62
     0
100
AcDbPoint
 10
887.1571782113431
 20
164.3503852083686
 30
0.0
  0
POINT
  5
6519
330
6511
100
AcDbEntity
  8
DEFPOINTS
 62
     0
100
AcDbPoint
 10
887.4703433746976
 20
164.1117895452465
 30
0.0
  0
ENDBLK
  5
6513
330
6511
100
AcDbEntity
  8
0
100
AcDbBlockEnd
  0
BLOCK
  5
6523
330
6522
100
AcDbEntity
  8
0
100
AcDbBlockBegin
  2
*D198
 70
     1
 10
0.0
 20
0.0
 30
0.0
  3
*D198
  1

  0
LINE
  5
6539
330
6522
100
AcDbEntity
  8
标注
370
    -2
100
AcDbLine
 10
918.9566425871911
 20
189.3507668936786
 30
0.0
 11
920.8301430690704
 21
189.3507668936786
 31
0.0
  0
LINE
  5
653A
330
6522
100
AcDbEntity
  8
标注
370
    -2
100
AcDbLine
 10
919.0336571372331
 20
180.4124952401894
 30
0.0
 11
920.8301430690704
 21
180.4124952401894
 31
0.0
  0
LINE
  5
653B
330
6522
100
AcDbEntity
  8
标注
370
    -2
100
AcDbLine
 10
920.5101430690703
 20
188.7007668936786
 30
0.0
 11
920.5101430690703
 21
185.5551815444238
 31
0.0
  0
LINE
  5
653C
330
6522
100
AcDbEntity
  8
标注
370
    -2
100
AcDbLine
 10
920.5101430690703
 20
181.0624952401894
 30
0.0
 11
920.5101430690703
 21
184.2080805894443
 31
0.0
  0
SOLID
  5
653D
330
6522
100
AcDbEntity
  8
标注
100
AcDbTrace
 10
920.4018097357371
 20
188.7007668936786
 30
0.0
 11
920.6184764024037
 21
188.7007668936786
 31
0.0
 12
920.5101430690703
 22
189.3507668936786
 32
0.0
 13
920.5101430690703
 23
189.3507668936786
 33
0.0
  0
SOLID
  5
653E
330
6522
100
AcDbEntity
  8
标注
100
AcDbTrace
 10
920.4018097357371
 20
181.0624952401894
 30
0.0
 11
920.6184764024037
 21
181.0624952401894
 31
0.0
 12
920.5101430690703
 22
180.4124952401894
 32
0.0
 13
920.5101430690703
 23
180.4124952401894
 33
0.0
  0
MTEXT
  5
653F
330
6522
100
AcDbEntity
  8
标注
100
AcDbMText
 10
920.5101430690703
 20
184.8816310669342
 30
0.0
 40
0.65
 41
0.0
 71
     5
 72
     1
  1
\A1;9"
 11
0.0000000000000001
 21
1.0
 31
0.0
 73
     1
 44
1.0
1001
ACAD
1000
MTEXTBEGIN
1070
    73
1070
     1
1070
    44
1040
1.0
1070
    74
1070
     0
1000
MTEXTEND
  0
POINT
  5
6540
330
6522
100
AcDbEntity
  8
DEFPOINTS
 62
     0
100
AcDbPoint
 10
918.076642587191
 20
189.3507668936786
 30
0.0
  0
POINT
  5
6541
330
6522
100
AcDbEntity
  8
DEFPOINTS
 62
     0
100
AcDbPoint
 10
918.153657137233
 20
180.4124952401894
 30
0.0
  0
POINT
  5
6542
330
6522
100
AcDbEntity
  8
DEFPOINTS
 62
     0
100
AcDbPoint
 10
920.5101430690703
 20
180.4124952401894
 30
0.0
  0
ENDBLK
  5
6524
330
6522
100
AcDbEntity
  8
0
100
AcDbBlockEnd
  0
BLOCK
  5
6555
330
6554
100
AcDbEntity
  8
0
100
AcDbBlockBegin
  2
*D199
 70
     1
 10
0.0
 20
0.0
 30
0.0
  3
*D199
  1

  0
LINE
  5
6557
330
6554
100
AcDbEntity
  8
标注
370
    -2
100
AcDbLine
 10
886.9979024298174
 20
117.2318946753836
 30
0.0
 11
886.9979024298174
 21
114.9500725505976
 31
0.0
  0
LINE
  5
6558
330
6554
100
AcDbEntity
  8
标注
370
    -2
100
AcDbLine
 10
917.1553827446516
 20
117.2318946753836
 30
0.0
 11
917.1553827446516
 21
114.9500725505976
 31
0.0
  0
LINE
  5
6559
330
6554
100
AcDbEntity
  8
标注
370
    -2
100
AcDbLine
 10
887.6479024298175
 20
115.2700725505976
 30
0.0
 11
900.3935082079713
 21
115.2700725505976
 31
0.0
  0
LINE
  5
655A
330
6554
100
AcDbEntity
  8
标注
370
    -2
100
AcDbLine
 10
916.5053827446516
 20
115.2700725505976
 30
0.0
 11
903.7597769664978
 21
115.2700725505976
 31
0.0
  0
SOLID
  5
655B
330
6554
100
AcDbEntity
  8
标注
100
AcDbTrace
 10
887.6479024298175
 20
115.3784058839309
 30
0.0
 11
887.6479024298175
 21
115.1617392172642
 31
0.0
 12
886.9979024298174
 22
115.2700725505976
 32
0.0
 13
886.9979024298174
 23
115.2700725505976
 33
0.0
  0
SOLID
  5
655C
330
6554
100
AcDbEntity
  8
标注
100
AcDbTrace
 10
916.5053827446516
 20
115.3784058839309
 30
0.0
 11
916.5053827446516
 21
115.1617392172642
 31
0.0
 12
917.1553827446516
 22
115.2700725505976
 32
0.0
 13
917.1553827446516
 23
115.2700725505976
 33
0.0
  0
MTEXT
  5
655D
330
6554
100
AcDbEntity
  8
标注
100
AcDbMText
 10
902.0766425872345
 20
115.2700725505976
 30
0.0
 40
0.65
 41
0.0
 71
     5
 72
     1
  1
\A1;30 1/8"
 73
     1
 44
1.0
1001
ACAD
1000
MTEXTBEGIN
1070
    73
1070
     1
1070
    44
1040
1.0
1070
    74
1070
     0
1000
MTEXTEND
  0
POINT
  5
655E
330
6554
100
AcDbEntity
  8
DEFPOINTS
 62
     0
100
AcDbPoint
 10
886.9979024298174
 20
118.1118946753836
 30
0.0
  0
POINT
  5
655F
330
6554
100
AcDbEntity
  8
DEFPOINTS
 62
     0
100
AcDbPoint
 10
917.1553827446516
 20
118.1118946753836
 30
0.0
  0
POINT
  5
6560
330
6554
100
AcDbEntity
  8
DEFPOINTS
 62
     0
100
AcDbPoint
 10
917.1553827446516
 20
115.2700725505976
 30
0.0
  0
ENDBLK
  5
6556
330
6554
100
AcDbEntity
  8
0
100
AcDbBlockEnd
  0
BLOCK
  5
6563
330
6562
100
AcDbEntity
  8
0
100
AcDbBlockBegin
  2
*D200
 70
     1
 10
0.0
 20
0.0
 30
0.0
  3
*D200
  1

  0
LINE
  5
6565
330
6562
100
AcDbEntity
  8
标注
370
    -2
100
AcDbLine
 10
917.5629417997717
 20
117.6394537305155
 30
0.0
 11
919.8286254658118
 21
117.6394537305155
 31
0.0
  0
LINE
  5
6566
330
6562
100
AcDbEntity
  8
标注
370
    -2
100
AcDbLine
 10
917.5629417997717
 20
133.7969340454133
 30
0.0
 11
919.8286254658118
 21
133.7969340454133
 31
0.0
  0
LINE
  5
6567
330
6562
100
AcDbEntity
  8
标注
370
    -2
100
AcDbLine
 10
919.5086254658118
 20
118.2894537305155
 30
0.0
 11
919.5086254658118
 21
124.0654312685919
 31
0.0
  0
LINE
  5
6568
330
6562
100
AcDbEntity
  8
标注
370
    -2
100
AcDbLine
 10
919.5086254658118
 20
133.1469340454133
 30
0.0
 11
919.5086254658118
 21
127.3709565073368
 31
0.0
  0
SOLID
  5
6569
330
6562
100
AcDbEntity
  8
标注
100
AcDbTrace
 10
919.4002921324784
 20
118.2894537305155
 30
0.0
 11
919.616958799145
 21
118.2894537305155
 31
0.0
 12
919.5086254658118
 22
117.6394537305155
 32
0.0
 13
919.5086254658118
 23
117.6394537305155
 33
0.0
  0
SOLID
  5
656A
330
6562
100
AcDbEntity
  8
标注
100
AcDbTrace
 10
919.4002921324784
 20
133.1469340454133
 30
0.0
 11
919.616958799145
 21
133.1469340454133
 31
0.0
 12
919.5086254658118
 22
133.7969340454133
 32
0.0
 13
919.5086254658118
 23
133.7969340454133
 33
0.0
  0
MTEXT
  5
656B
330
6562
100
AcDbEntity
  8
标注
100
AcDbMText
 10
919.5086254658118
 20
125.7181938879645
 30
0.0
 40
0.65
 41
0.0
 71
     5
 72
     1
  1
\A1;16 1/8"
 11
0.0000000000000001
 21
1.0
 31
0.0
 73
     1
 44
1.0
1001
ACAD
1000
MTEXTBEGIN
1070
    73
1070
     1
1070
    44
1040
1.0
1070
    74
1070
     0
1000
MTEXTEND
  0
POINT
  5
656C
330
6562
100
AcDbEntity
  8
DEFPOINTS
 62
     0
100
AcDbPoint
 10
916.6829417997716
 20
117.6394537305155
 30
0.0
  0
POINT
  5
656D
330
6562
100
AcDbEntity
  8
DEFPOINTS
 62
     0
100
AcDbPoint
 10
916.6829417997716
 20
133.7969340454133
 30
0.0
  0
POINT
  5
656E
330
6562
100
AcDbEntity
  8
DEFPOINTS
 62
     0
100
AcDbPoint
 10
919.5086254658118
 20
133.7969340454133
 30
0.0
  0
ENDBLK
  5
6564
330
6562
100
AcDbEntity
  8
0
100
AcDbBlockEnd
  0
BLOCK
  5
6571
330
6570
100
AcDbEntity
  8
0
100
AcDbBlockBegin
  2
*D201
 70
     1
 10
0.0
 20
0.0
 30
0.0
  3
*D201
  1

  0
LINE
  5
6579
330
6570
100
AcDbEntity
  8
标注
370
    -2
100
AcDbLine
 10
886.6552668616254
 20
117.3401926910778
 30
0.0
 11
886.1832600839742
 21
116.8933038885204
 31
0.0
  0
MTEXT
  5
657A
330
6570
100
AcDbEntity
  8
标注
100
AcDbMText
 10
885.75682253273
 20
117.5426266678326
 30
0.0
 40
0.65
 41
0.0
 71
     5
 72
     1
  1
\A1;4-R1/2"
 11
0.7261642733098186
 21
0.6875212347036439
 31
0.0
 73
     1
 44
1.0
1001
ACAD
1000
MTEXTBEGIN
1070
    73
1070
     1
1070
    44
1040
1.0
1070
    74
1070
     0
1000
MTEXTEND
  0
LINE
  5
657B
330
6570
100
AcDbEntity
  8
标注
370
    -2
100
AcDbLine
 10
887.4703433746972
 20
118.1118946753835
 30
0.0
 11
887.1272736392768
 21
117.7870814936351
 31
0.0
  0
SOLID
  5
657C
330
6570
100
AcDbEntity
  8
标注
100
AcDbTrace
 10
886.5807853945327
 20
117.4188604873529
 30
0.0
 11
886.7297483287185
 21
117.2615248948025
 31
0.0
 12
887.1272736392768
 22
117.7870814936351
 32
0.0
 13
887.1272736392768
 23
117.7870814936351
 33
0.0
  0
POINT
  5
657D
330
6570
100
AcDbEntity
  8
DEFPOINTS
 62
     0
100
AcDbPoint
 10
887.1272736392768
 20
117.7870814936351
 30
0.0
  0
POINT
  5
657E
330
6570
100
AcDbEntity
  8
DEFPOINTS
 62
     0
100
AcDbPoint
 10
887.4703433746972
 20
118.1118946753835
 30
0.0
  0
ENDBLK
  5
6572
330
6570
100
AcDbEntity
  8
0
100
AcDbBlockEnd
  0
BLOCK
  5
667F
330
6608
100
AcDbEntity
  8
0
100
AcDbBlockBegin
  2
A$C1ED2169A
 70
     0
 10
0.0
 20
0.0
 30
0.0
  3
A$C1ED2169A
  1

  0
LINE
  5
6609
330
6608
100
AcDbEntity
  8
0
100
AcDbLine
 10
0.0000037249119487
 20
700.7113065125304
 30
0.0
 11
0.0000037248828448
 21
1114.854452263069
 31
0.0
  0
ARC
  5
660A
330
6608
100
AcDbEntity
  8
0
100
AcDbCircle
 10
2.000003724911948
 20
700.7113065125304
 30
0.0
 40
2.0
100
AcDbArc
 50
180.0
 51
225.0
  0
ARC
  5
660B
330
6608
100
AcDbEntity
  8
0
100
AcDbCircle
 10
2.000003724882844
 20
1114.854452263069
 30
0.0
 40
2.0
100
AcDbArc
 50
135.0
 51
180.0
  0
LINE
  5
660C
330
6608
100
AcDbEntity
  8
0
100
AcDbLine
 10
25.40000372490613
 20
1100.982879387738
 30
0.0
 11
25.40000372490613
 21
714.5828793878027
 31
0.0
  0
LINE
  5
660D
330
6608
100
AcDbEntity
  8
0
100
AcDbLine
 10
35.40000372490613
 20
704.5828793877444
 30
0.0
 11
726.6000037248595
 21
704.5828793877444
 31
0.0
  0
LINE
  5
660E
330
6608
100
AcDbEntity
  8
0
100
AcDbLine
 10
726.6000037248595
 20
1110.982879387738
 30
0.0
 11
35.40000372490613
 21
1110.982879387738
 31
0.0
  0
ARC
  5
660F
330
6608
100
AcDbEntity
  8
0
100
AcDbCircle
 10
35.40000372490613
 20
1100.982879387738
 30
0.0
 40
10.0
100
AcDbArc
 50
90.0
 51
180.0
  0
LINE
  5
6610
330
6608
100
AcDbEntity
  8
0
100
AcDbLine
 10
736.6000037248887
 20
714.5828793877444
 30
0.0
 11
736.6000037248887
 21
1100.982879387797
 31
0.0
  0
LINE
  5
6611
330
6608
100
AcDbEntity
  8
0
100
AcDbLine
 10
740.4715766001317
 20
1136.382879387733
 30
0.0
 11
21.52843084963388
 21
1136.382879387762
 31
0.0
  0
ARC
  5
6612
330
6608
100
AcDbEntity
  8
0
100
AcDbCircle
 10
21.52843084963388
 20
1134.382879387762
 30
0.0
 40
2.0
100
AcDbArc
 50
90.0
 51
135.0
  0
ARC
  5
6613
330
6608
100
AcDbEntity
  8
0
100
AcDbCircle
 10
740.4715766001317
 20
1134.382879387733
 30
0.0
 40
2.0
100
AcDbArc
 50
45.0
 51
90.0
  0
LINE
  5
6614
330
6608
100
AcDbEntity
  8
0
100
AcDbLine
 10
0.5857901624985971
 20
1116.268665825453
 30
0.0
 11
20.11421728724963
 21
1135.797092950146
 31
0.0
  0
LINE
  5
6615
330
6608
100
AcDbEntity
  8
0
100
AcDbLine
 10
761.4142172872671
 20
1116.268665825395
 30
0.0
 11
741.885790162516
 21
1135.797092950117
 31
0.0
  0
LINE
  5
6616
330
6608
100
AcDbEntity
  8
0
100
AcDbLine
 10
762.0000037248537
 20
700.7113065125013
 30
0.0
 11
762.0000037248829
 21
1114.854452263011
 31
0.0
  0
ARC
  5
6617
330
6608
100
AcDbEntity
  8
0
100
AcDbCircle
 10
760.0000037248537
 20
700.7113065125013
 30
0.0
 40
2.0
100
AcDbArc
 50
315.0
 51
0.0
  0
ARC
  5
6618
330
6608
100
AcDbEntity
  8
0
100
AcDbCircle
 10
760.0000037248828
 20
1114.854452263011
 30
0.0
 40
2.0
100
AcDbArc
 50
0.0
 51
45.0
  0
LINE
  5
6619
330
6608
100
AcDbEntity
  8
0
100
AcDbLine
 10
741.8857901625451
 20
679.7686658253369
 30
0.0
 11
761.4142172872379
 21
699.297092950117
 31
0.0
  0
ARC
  5
661A
330
6608
100
AcDbEntity
  8
0
100
AcDbCircle
 10
740.4715766001609
 20
681.1828793877212
 30
0.0
 40
2.0
100
AcDbArc
 50
270.0
 51
315.0
  0
LINE
  5
661B
330
6608
100
AcDbEntity
  8
0
100
AcDbLine
 10
21.52843084966298
 20
679.1828793877794
 30
0.0
 11
740.4715766001609
 21
679.1828793877211
 31
0.0
  0
ARC
  5
661C
330
6608
100
AcDbEntity
  8
0
100
AcDbCircle
 10
21.52843084966298
 20
681.1828793877793
 30
0.0
 40
2.0
100
AcDbArc
 50
225.0
 51
270.0
  0
LINE
  5
661D
330
6608
100
AcDbEntity
  8
0
100
AcDbLine
 10
0.5857901625277009
 20
699.2970929501462
 30
0.0
 11
20.11421728727873
 21
679.7686658253951
 31
0.0
  0
CIRCLE
  5
661E
330
6608
100
AcDbEntity
  8
0
100
AcDbCircle
 10
381.0000037247955
 20
978.3828793876164
 30
0.0
 40
58.0
  0
CIRCLE
  5
661F
330
6608
100
AcDbEntity
  8
0
100
AcDbCircle
 10
381.0000037247955
 20
978.3828793876164
 30
0.0
 40
55.0
  0
CIRCLE
  5
6620
330
6608
100
AcDbEntity
  8
0
100
AcDbCircle
 10
381.0000037247955
 20
978.3828793876164
 30
0.0
 40
45.49999999999999
  0
LINE
  5
6621
330
6608
100
AcDbEntity
  8
细实线
 48
5.0
100
AcDbLine
 10
50.5029199294222
 20
1085.879963183164
 30
0.0
 11
325.7852399944968
 21
996.1404092329612
 31
0.0
  0
LINE
  5
6622
330
6608
100
AcDbEntity
  8
0
100
AcDbLine
 10
0.0000037329737097
 20
1652.95162582735
 30
0.0
 11
23.06892362242797
 21
1652.951625827292
 31
0.0
  0
ARC
  5
6623
330
6608
100
AcDbEntity
  8
虚线
 48
2.5
370
     9
100
AcDbCircle
 10
23.06892358648474
 20
1650.451625827292
 30
0.0
 40
2.5
100
AcDbArc
 50
4.005089379315945
 51
90.0
  0
LINE
  5
6624
330
6608
100
AcDbEntity
  8
0
100
AcDbLine
 10
0.0000037329737097
 20
1651.45162582735
 30
0.0
 11
23.06865574832773
 21
1651.451625827292
 31
0.0
  0
LINE
  5
6625
330
6608
100
AcDbEntity
  8
0
100
AcDbLine
 10
0.0000037329737097
 20
1652.95162582735
 30
0.0
 11
0.0000037329737097
 21
1651.45162582735
 31
0.0
  0
LINE
  5
6626
330
6608
100
AcDbEntity
  8
虚线
 48
2.5
370
     9
100
AcDbLine
 10
25.56281821176526
 20
1650.626238536061
 30
0.0
 11
40.63832002104027
 21
1435.311367115675
 31
0.0
  0
ARC
  5
6627
330
6608
100
AcDbEntity
  8
虚线
 48
2.5
370
     9
100
AcDbCircle
 10
50.61389852210414
 20
1436.009817950719
 30
0.0
 40
10.0
100
AcDbArc
 50
184.0050893793159
 51
269.3641264490612
  0
LINE
  5
6628
330
6608
100
AcDbEntity
  8
0
100
AcDbLine
 10
24.06621352420188
 20
1650.521471970889
 30
0.0
 11
39.14335164430668
 21
1435.186901738605
 31
0.0
  0
ARC
  5
6629
330
6608
100
AcDbEntity
  8
0
100
AcDbCircle
 10
23.06865574832773
 20
1650.451625827292
 30
0.0
 40
1.0
100
AcDbArc
 50
4.005150266086713
 51
90.0
  0
LINE
  5
662A
330
6608
100
AcDbEntity
  8
0
100
AcDbLine
 10
23.06892358648474
 20
1652.951625827292
 30
0.0
 11
738.9310838632518
 21
1652.95162582735
 31
0.0
  0
LINE
  5
662B
330
6608
100
AcDbEntity
  8
0
100
AcDbLine
 10
762.0000037249119
 20
1652.95162582735
 30
0.0
 11
738.9310838632518
 21
1652.951625827292
 31
0.0
  0
ARC
  5
662C
330
6608
100
AcDbEntity
  8
虚线
 48
2.5
370
     9
100
AcDbCircle
 10
738.9310838632518
 20
1650.451625827292
 30
0.0
 40
2.5
100
AcDbArc
 50
90.0
 51
175.994910620684
  0
LINE
  5
662D
330
6608
100
AcDbEntity
  8
虚线
 48
2.5
370
     9
100
AcDbLine
 10
736.4371892379713
 20
1650.626238536061
 30
0.0
 11
721.3616874287254
 21
1435.311367115675
 31
0.0
  0
ARC
  5
662E
330
6608
100
AcDbEntity
  8
虚线
 48
2.5
370
     9
100
AcDbCircle
 10
711.3861089276324
 20
1436.009817950719
 30
0.0
 40
10.0
100
AcDbArc
 50
270.6358735509387
 51
355.994910620684
  0
LINE
  5
662F
330
6608
100
AcDbEntity
  8
虚线
 48
2.5
370
     9
100
AcDbLine
 10
711.497087520489
 20
1426.010433782096
 30
0.0
 11
440.8541056905233
 21
1422.744525827293
 31
0.0
  0
LINE
  5
6630
330
6608
100
AcDbEntity
  8
虚线
 48
2.5
370
     9
100
AcDbLine
 10
321.1459150159208
 20
1422.744525827293
 30
0.0
 11
440.8541056905233
 21
1422.744525827293
 31
0.0
  0
LINE
  5
6631
330
6608
100
AcDbEntity
  8
中心线
 48
2.0
100
AcDbLine
 10
381.0000037249411
 20
1402.655782122369
 30
0.0
 11
381.0000037249119
 21
1663.616466811189
 31
0.0
  0
ARC
  5
6632
330
6608
100
AcDbEntity
  8
虚线
 48
2.5
370
     9
100
AcDbCircle
 10
440.8541056909307
 20
1419.744525827293
 30
0.0
 40
3.0
100
AcDbArc
 50
90.00000000833763
 51
153.4349489347831
  0
ARC
  5
6633
330
6608
100
AcDbEntity
  8
虚线
 48
2.5
370
     9
100
AcDbCircle
 10
321.1459017589223
 20
1419.744525827293
 30
0.0
 40
3.0
100
AcDbArc
 50
26.56505132473462
 51
89.99999999499742
  0
ARC
  5
6634
330
6608
100
AcDbEntity
  8
虚线
 48
2.5
370
     9
100
AcDbCircle
 10
435.0729527419316
 20
1418.244525827293
 30
0.0
 40
1.5
100
AcDbArc
 50
270.0000000500258
 51
333.4349483531054
  0
ARC
  5
6635
330
6608
100
AcDbEntity
  8
虚线
 48
2.5
370
     9
100
AcDbCircle
 10
326.9270547079214
 20
1418.244525827293
 30
0.0
 40
1.5
100
AcDbArc
 50
206.5650522270807
 51
269.9999999483067
  0
LINE
  5
6636
330
6608
100
AcDbEntity
  8
虚线
 48
2.5
370
     9
100
AcDbLine
 10
325.5854139217117
 20
1417.573705434566
 30
0.0
 11
323.8291833319236
 21
1421.086166614142
 31
0.0
  0
LINE
  5
6637
330
6608
100
AcDbEntity
  8
虚线
 48
2.5
370
     9
100
AcDbLine
 10
435.0729527419316
 20
1416.744525827293
 30
0.0
 11
426.0000037249119
 21
1416.744525827293
 31
0.0
  0
LINE
  5
6638
330
6608
100
AcDbEntity
  8
虚线
 48
2.5
370
     9
100
AcDbLine
 10
336.000003724912
 20
1415.244525827293
 30
0.0
 11
336.000003724941
 21
1416.744525827293
 31
0.0
  0
LINE
  5
6639
330
6608
100
AcDbEntity
  8
虚线
 48
2.5
370
     9
100
AcDbLine
 10
436.4145935281121
 20
1417.573705434566
 30
0.0
 11
438.1708241179294
 21
1421.086166614142
 31
0.0
  0
LINE
  5
663A
330
6608
100
AcDbEntity
  8
虚线
 48
2.5
370
     9
100
AcDbLine
 10
426.000003724941
 20
1415.244525827293
 30
0.0
 11
426.000003724941
 21
1416.744525827293
 31
0.0
  0
LINE
  5
663B
330
6608
100
AcDbEntity
  8
虚线
 48
2.5
370
     9
100
AcDbLine
 10
336.000003724941
 20
1416.744525827293
 30
0.0
 11
326.9270547079214
 21
1416.744525827293
 31
0.0
  0
LINE
  5
663C
330
6608
100
AcDbEntity
  8
虚线
 48
2.5
370
     9
100
AcDbLine
 10
426.000003724941
 20
1416.744525827293
 30
0.0
 11
336.000003724941
 21
1416.744525827293
 31
0.0
  0
LINE
  5
663D
330
6608
100
AcDbEntity
  8
0
100
AcDbLine
 10
437.7562343146128
 20
1416.902885041316
 30
0.0
 11
439.5124649044301
 21
1420.415346220892
 31
0.0
  0
ARC
  5
663E
330
6608
100
AcDbEntity
  8
0
100
AcDbCircle
 10
440.8541056909307
 20
1419.744525827293
 30
0.0
 40
1.5
100
AcDbArc
 50
90.00000000833763
 51
153.4349489347831
  0
LINE
  5
663F
330
6608
100
AcDbEntity
  8
0
100
AcDbLine
 10
711.5115946071746
 20
1424.490832052106
 30
0.0
 11
440.8541056905233
 21
1421.244525827293
 31
0.0
  0
ARC
  5
6640
330
6608
100
AcDbEntity
  8
0
100
AcDbCircle
 10
435.0729527419316
 20
1418.244525827293
 30
0.0
 40
3.0
100
AcDbArc
 50
270.0000000500258
 51
333.4349483531054
  0
LINE
  5
6641
330
6608
100
AcDbEntity
  8
0
100
AcDbLine
 10
435.0729527419316
 20
1415.244525827293
 30
0.0
 11
426.0000037249119
 21
1415.244525827293
 31
0.0
  0
LINE
  5
6642
330
6608
100
AcDbEntity
  8
0
100
AcDbLine
 10
426.000003724941
 20
1415.244525827293
 30
0.0
 11
336.000003724941
 21
1415.244525827293
 31
0.0
  0
LINE
  5
6643
330
6608
100
AcDbEntity
  8
0
100
AcDbLine
 10
336.000003724912
 20
1415.244525827293
 30
0.0
 11
326.9270547079214
 21
1415.244525827293
 31
0.0
  0
ARC
  5
6644
330
6608
100
AcDbEntity
  8
0
100
AcDbCircle
 10
326.9270547079214
 20
1418.244525827293
 30
0.0
 40
3.0
100
AcDbArc
 50
206.5650522270807
 51
269.9999999483067
  0
LINE
  5
6645
330
6608
100
AcDbEntity
  8
0
100
AcDbLine
 10
324.2437731352111
 20
1416.902885041316
 30
0.0
 11
322.4875425454229
 21
1420.415346220892
 31
0.0
  0
ARC
  5
6646
330
6608
100
AcDbEntity
  8
0
100
AcDbCircle
 10
321.1459017589223
 20
1419.744525827293
 30
0.0
 40
1.5
100
AcDbArc
 50
26.56505132473462
 51
89.99999999499742
  0
LINE
  5
6647
330
6608
100
AcDbEntity
  8
0
100
AcDbLine
 10
762.0000037249119
 20
1651.45162582735
 30
0.0
 11
738.9313517013506
 21
1651.451625827292
 31
0.0
  0
ARC
  5
6648
330
6608
100
AcDbEntity
  8
0
100
AcDbCircle
 10
738.9313517013506
 20
1650.451625827292
 30
0.0
 40
1.0
100
AcDbArc
 50
90.0
 51
175.9948497339133
  0
LINE
  5
6649
330
6608
100
AcDbEntity
  8
0
100
AcDbLine
 10
737.9337939254765
 20
1650.521471970889
 30
0.0
 11
722.8566558053716
 21
1435.186901738576
 31
0.0
  0
ARC
  5
664A
330
6608
100
AcDbEntity
  8
0
100
AcDbCircle
 10
711.3847413827316
 20
1435.990132389939
 30
0.0
 40
11.5
100
AcDbArc
 50
270.6320262414141
 51
355.9948497339133
  0
LINE
  5
664B
330
6608
100
AcDbEntity
  8
0
100
AcDbLine
 10
762.0000037249119
 20
1652.95162582735
 30
0.0
 11
762.0000037249119
 21
1651.45162582735
 31
0.0
  0
LINE
  5
664C
330
6608
100
AcDbEntity
  8
虚线
 48
2.5
370
     9
100
AcDbLine
 10
50.50291992924758
 20
1426.010433782096
 30
0.0
 11
321.1459017592715
 21
1422.744525827351
 31
0.0
  0
LINE
  5
664D
330
6608
100
AcDbEntity
  8
0
100
AcDbLine
 10
50.48841284250375
 20
1424.490832052135
 30
0.0
 11
321.1459017592715
 21
1421.244525827351
 31
0.0
  0
ARC
  5
664E
330
6608
100
AcDbEntity
  8
0
100
AcDbCircle
 10
50.61526606694679
 20
1435.990132389968
 30
0.0
 40
11.5
100
AcDbArc
 50
184.0051502660867
 51
269.3679737585859
  0
POINT
  5
664F
330
6608
100
AcDbEntity
  8
0
100
AcDbPoint
 10
25.40000372484792
 20
1652.951625827292
 30
0.0
  0
POINT
  5
6650
330
6608
100
AcDbEntity
  8
0
100
AcDbPoint
 10
736.6000037248887
 20
1652.951625827292
 30
0.0
  0
LINE
  5
6651
330
6608
100
AcDbEntity
  8
粗实线
370
    -2
100
AcDbLine
 10
35.40000372490613
 20
1110.982879387738
 30
0.0
 11
50.502919929364
 21
1095.87996318328
 31
0.0
  0
LINE
  5
6652
330
6608
100
AcDbEntity
  8
粗实线
370
    -2
100
AcDbLine
 10
25.40000372490613
 20
1100.982879387738
 30
0.0
 11
40.50291992910206
 21
1085.879963183601
 31
0.0
  0
ARC
  5
6653
330
6608
100
AcDbEntity
  8
0
100
AcDbCircle
 10
726.6000037248595
 20
1100.982879387797
 30
0.0
 40
10.0
100
AcDbArc
 50
0.0
 51
90.0
  0
ARC
  5
6654
330
6608
100
AcDbEntity
  8
0
100
AcDbCircle
 10
35.40000372490613
 20
714.5828793878027
 30
0.0
 40
10.0
100
AcDbArc
 50
180.0
 51
270.0
  0
ARC
  5
6655
330
6608
100
AcDbEntity
  8
0
100
AcDbCircle
 10
726.6000037248595
 20
714.5828793877444
 30
0.0
 40
10.0
100
AcDbArc
 50
270.0
 51
0.0
  0
LINE
  5
6656
330
6608
100
AcDbEntity
  8
细实线
 48
5.0
100
AcDbLine
 10
50.50291992953862
 20
729.685795592406
 30
0.0
 11
334.6257262062863
 21
943.5486091263593
 31
0.0
  0
LINE
  5
6657
330
6608
100
AcDbEntity
  8
细实线
 48
5.0
100
AcDbLine
 10
711.4970875201979
 20
729.6857956197055
 30
0.0
 11
427.3742812442651
 21
943.5486091276107
 31
0.0
  0
LINE
  5
6658
330
6608
100
AcDbEntity
  8
0
100
AcDbLine
 10
40.50291992910206
 20
1085.879963183368
 30
0.0
 11
40.50291992907296
 21
729.6857955919404
 31
0.0
  0
LINE
  5
6659
330
6608
100
AcDbEntity
  8
0
100
AcDbLine
 10
50.50291992953862
 20
719.6857955924643
 30
0.0
 11
50.5029199294222
 21
1085.879963183164
 31
0.0
  0
LINE
  5
665A
330
6608
100
AcDbEntity
  8
0
100
AcDbLine
 10
50.5029199293931
 20
1095.87996318328
 30
0.0
 11
50.5029199294222
 21
1085.879963183164
 31
0.0
  0
LINE
  5
665B
330
6608
100
AcDbEntity
  8
0
100
AcDbLine
 10
50.50291992910207
 20
1095.87996318328
 30
0.0
 11
711.497087505646
 21
1095.879963168496
 31
0.0
  0
LINE
  5
665C
330
6608
100
AcDbEntity
  8
0
100
AcDbLine
 10
721.4970874925202
 20
1085.879963155457
 30
0.0
 11
50.5029199294222
 21
1085.879963183164
 31
0.0
  0
LINE
  5
665D
330
6608
100
AcDbEntity
  8
0
100
AcDbLine
 10
40.50291992910206
 20
1085.879963183601
 30
0.0
 11
50.5029199294222
 21
1085.879963183164
 31
0.0
  0
ARC
  5
665E
330
6608
100
AcDbEntity
  8
粗实线
370
    -2
100
AcDbCircle
 10
50.50291992910207
 20
1085.87996318328
 30
0.0
 40
10.0
100
AcDbArc
 50
89.99999999833248
 51
180.0
  0
LINE
  5
665F
330
6608
100
AcDbEntity
  8
细实线
 48
5.0
100
AcDbLine
 10
711.4970875203434
 20
1085.879963183164
 30
0.0
 11
436.2147674552688
 21
996.1404092329612
 31
0.0
  0
LINE
  5
6660
330
6608
100
AcDbEntity
  8
粗实线
370
    -2
100
AcDbLine
 10
726.6000037248595
 20
1110.982879387738
 30
0.0
 11
711.4970875204017
 21
1095.87996318328
 31
0.0
  0
LINE
  5
6661
330
6608
100
AcDbEntity
  8
粗实线
370
    -2
100
AcDbLine
 10
736.6000037248595
 20
1100.982879387738
 30
0.0
 11
721.4970875206636
 21
1085.879963183601
 31
0.0
  0
LINE
  5
6662
330
6608
100
AcDbEntity
  8
0
100
AcDbLine
 10
721.4970875206636
 20
1085.879963183368
 30
0.0
 11
721.4970875206927
 21
729.6857955919404
 31
0.0
  0
LINE
  5
6663
330
6608
100
AcDbEntity
  8
0
100
AcDbLine
 10
711.4970875201979
 20
719.6857955924933
 30
0.0
 11
711.4970875203434
 21
1085.879963183164
 31
0.0
  0
LINE
  5
6664
330
6608
100
AcDbEntity
  8
0
100
AcDbLine
 10
711.4970875203725
 20
1095.87996318328
 30
0.0
 11
711.4970875203434
 21
1085.879963183164
 31
0.0
  0
LINE
  5
6665
330
6608
100
AcDbEntity
  8
0
100
AcDbLine
 10
721.4970875206636
 20
1085.879963183601
 30
0.0
 11
711.4970875203434
 21
1085.879963183164
 31
0.0
  0
ARC
  5
6666
330
6608
100
AcDbEntity
  8
粗实线
370
    -2
100
AcDbCircle
 10
711.4970875206636
 20
1085.87996318328
 30
0.0
 40
10.0
100
AcDbArc
 50
0.0
 51
90.00000000333505
  0
LINE
  5
6667
330
6608
100
AcDbEntity
  8
粗实线
370
    -2
100
AcDbLine
 10
35.40000372490613
 20
704.5828793878317
 30
0.0
 11
50.502919929364
 21
719.6857955922896
 31
0.0
  0
LINE
  5
6668
330
6608
100
AcDbEntity
  8
粗实线
370
    -2
100
AcDbLine
 10
25.40000372490613
 20
714.5828793878317
 30
0.0
 11
40.50291992910206
 21
729.6857955919695
 31
0.0
  0
LINE
  5
6669
330
6608
100
AcDbEntity
  8
0
100
AcDbLine
 10
50.5029199293931
 20
719.6857955922896
 30
0.0
 11
50.50291992953862
 21
729.685795592406
 31
0.0
  0
LINE
  5
666A
330
6608
100
AcDbEntity
  8
0
100
AcDbLine
 10
50.50291992910207
 20
719.6857955922896
 30
0.0
 11
711.497087505646
 21
719.6857956070743
 31
0.0
  0
LINE
  5
666B
330
6608
100
AcDbEntity
  8
0
100
AcDbLine
 10
721.4970874925202
 20
729.6857956201129
 30
0.0
 11
50.50291992953862
 21
729.685795592406
 31
0.0
  0
LINE
  5
666C
330
6608
100
AcDbEntity
  8
0
100
AcDbLine
 10
40.50291992910206
 20
729.6857955919695
 30
0.0
 11
50.50291992953862
 21
729.685795592406
 31
0.0
  0
ARC
  5
666D
330
6608
100
AcDbEntity
  8
粗实线
370
    -2
100
AcDbCircle
 10
50.50291992910207
 20
729.6857955922896
 30
0.0
 40
10.0
100
AcDbArc
 50
180.0
 51
270.0000000016675
  0
LINE
  5
666E
330
6608
100
AcDbEntity
  8
粗实线
370
    -2
100
AcDbLine
 10
726.6000037248595
 20
704.5828793878317
 30
0.0
 11
711.4970875204017
 21
719.6857955922896
 31
0.0
  0
LINE
  5
666F
330
6608
100
AcDbEntity
  8
粗实线
370
    -2
100
AcDbLine
 10
736.6000037248595
 20
714.5828793878317
 30
0.0
 11
721.4970875206636
 21
729.6857955919695
 31
0.0
  0
LINE
  5
6670
330
6608
100
AcDbEntity
  8
0
100
AcDbLine
 10
711.4970875203725
 20
719.6857955922896
 30
0.0
 11
711.4970875201979
 21
729.6857956197055
 31
0.0
  0
LINE
  5
6671
330
6608
100
AcDbEntity
  8
0
100
AcDbLine
 10
721.4970875206636
 20
729.6857955919695
 30
0.0
 11
711.4970875201979
 21
729.6857956197055
 31
0.0
  0
ARC
  5
6672
330
6608
100
AcDbEntity
  8
粗实线
370
    -2
100
AcDbCircle
 10
711.4970875206636
 20
729.6857955922896
 30
0.0
 40
10.0
100
AcDbArc
 50
269.9999999966649
 51
0.0
  0
LINE
  5
6673
330
6608
100
AcDbEntity
  8
0
100
AcDbLine
 10
23.06865574832773
 20
1651.451625827292
 30
0.0
 11
738.9313517013506
 21
1651.451625827292
 31
0.0
  0
LINE
  5
6674
330
6608
100
AcDbEntity
  8
0
100
AcDbLine
 10
321.1459017590678
 20
1421.244525827293
 30
0.0
 11
440.8541056905233
 21
1421.244525827293
 31
0.0
  0
LINE
  5
6675
330
6608
100
AcDbEntity
  8
0
100
AcDbLine
 10
726.6000037248886
 20
410.3999982165114
 30
0.0
 11
35.40000372493523
 21
410.3999982165114
 31
0.0
  0
ARC
  5
6676
330
6608
100
AcDbEntity
  8
0
100
AcDbCircle
 10
35.40000372493523
 20
398.3999982165114
 30
0.0
 40
12.0
100
AcDbArc
 50
90.0
 51
180.0
  0
LINE
  5
6677
330
6608
100
AcDbEntity
  8
0
100
AcDbLine
 10
23.40000372493523
 20
398.3999982165114
 30
0.0
 11
23.40000372493523
 21
11.99999821651727
 31
0.0
  0
ARC
  5
6678
330
6608
100
AcDbEntity
  8
0
100
AcDbCircle
 10
35.40000372493523
 20
11.99999821651727
 30
0.0
 40
12.0
100
AcDbArc
 50
180.0
 51
270.0
  0
LINE
  5
6679
330
6608
100
AcDbEntity
  8
0
100
AcDbLine
 10
35.40000372493523
 20
-0.0000017834827304
 30
0.0
 11
726.6000037249177
 21
-0.0000017834827304
 31
0.0
  0
LINE
  5
667A
330
6608
100
AcDbEntity
  8
0
100
AcDbLine
 10
738.6000037249178
 20
11.99999821651727
 30
0.0
 11
738.6000037248886
 21
398.3999982165114
 31
0.0
  0
ARC
  5
667B
330
6608
100
AcDbEntity
  8
0
100
AcDbCircle
 10
726.6000037249177
 20
11.99999821651727
 30
0.0
 40
12.0
100
AcDbArc
 50
270.0
 51
0.0
  0
ARC
  5
667C
330
6608
100
AcDbEntity
  8
0
100
AcDbCircle
 10
726.6000037248886
 20
398.3999982165114
 30
0.0
 40
12.0
100
AcDbArc
 50
0.0
 51
90.0
  0
ENDBLK
  5
6680
330
6608
100
AcDbEntity
  8
0
100
AcDbBlockEnd
  0
BLOCK
  5
6786
330
6785
100
AcDbEntity
  8
0
100
AcDbBlockBegin
  2
*D205
 70
     1
 10
0.0
 20
0.0
 30
0.0
  3
*D205
  1

  0
LINE
  5
6851
330
6785
100
AcDbEntity
  8
标注
370
    -2
100
AcDbLine
 10
976.590926439079
 20
185.8898057452307
 30
0.0
 11
978.4644269209586
 21
185.8898057452307
 31
0.0
  0
LINE
  5
6852
330
6785
100
AcDbEntity
  8
标注
370
    -2
100
AcDbLine
 10
976.667940989121
 20
176.9515340917415
 30
0.0
 11
978.4644269209586
 21
176.9515340917415
 31
0.0
  0
LINE
  5
6853
330
6785
100
AcDbEntity
  8
标注
370
    -2
100
AcDbLine
 10
978.1444269209584
 20
185.2398057452307
 30
0.0
 11
978.1444269209584
 21
182.0942203959758
 31
0.0
  0
LINE
  5
6854
330
6785
100
AcDbEntity
  8
标注
370
    -2
100
AcDbLine
 10
978.1444269209584
 20
177.6015340917415
 30
0.0
 11
978.1444269209584
 21
180.7471194409963
 31
0.0
  0
SOLID
  5
6855
330
6785
100
AcDbEntity
  8
标注
100
AcDbTrace
 10
978.0360935876251
 20
185.2398057452307
 30
0.0
 11
978.2527602542918
 21
185.2398057452307
 31
0.0
 12
978.1444269209584
 22
185.8898057452307
 32
0.0
 13
978.1444269209584
 23
185.8898057452307
 33
0.0
  0
SOLID
  5
6856
330
6785
100
AcDbEntity
  8
标注
100
AcDbTrace
 10
978.0360935876251
 20
177.6015340917415
 30
0.0
 11
978.2527602542918
 21
177.6015340917415
 31
0.0
 12
978.1444269209584
 22
176.9515340917415
 32
0.0
 13
978.1444269209584
 23
176.9515340917415
 33
0.0
  0
MTEXT
  5
6857
330
6785
100
AcDbEntity
  8
标注
100
AcDbMText
 10
978.1444269209584
 20
181.4206699184862
 30
0.0
 40
0.65
 41
0.0
 71
     5
 72
     1
  1
\A1;9"
 11
0.0000000000000001
 21
1.0
 31
0.0
 73
     1
 44
1.0
1001
ACAD
1000
MTEXTBEGIN
1070
    73
1070
     1
1070
    44
1040
1.0
1070
    74
1070
     0
1000
MTEXTEND
  0
POINT
  5
6858
330
6785
100
AcDbEntity
  8
DEFPOINTS
 62
     0
100
AcDbPoint
 10
975.7109264390791
 20
185.8898057452307
 30
0.0
  0
POINT
  5
6859
330
6785
100
AcDbEntity
  8
DEFPOINTS
 62
     0
100
AcDbPoint
 10
975.7879409891211
 20
176.9515340917415
 30
0.0
  0
POINT
  5
685A
330
6785
100
AcDbEntity
  8
DEFPOINTS
 62
     0
100
AcDbPoint
 10
978.1444269209584
 20
176.9515340917415
 30
0.0
  0
ENDBLK
  5
6787
330
6785
100
AcDbEntity
  8
0
100
AcDbBlockEnd
  0
BLOCK
  5
6793
330
6792
100
AcDbEntity
  8
0
100
AcDbBlockBegin
  2
*D206
 70
     1
 10
0.0
 20
0.0
 30
0.0
  3
*D206
  1

  0
ARC
  5
6847
330
6792
100
AcDbEntity
  8
标注
  6
Continuous
 62
     3
370
    13
100
AcDbCircle
 10
974.7109264390671
 20
185.8898057452307
 30
0.0
 40
2.274130749127481
100
AcDbArc
 50
196.4327435337933
 51
206.5211549833903
  0
ARC
  5
6848
330
6792
100
AcDbEntity
  8
标注
  6
Continuous
 62
     3
370
    13
100
AcDbCircle
 10
974.7109264390671
 20
185.8898057452307
 30
0.0
 40
2.274130749127481
100
AcDbArc
 50
243.8633230662567
 51
249.5621670877048
  0
SOLID
  5
6849
330
6792
100
AcDbEntity
  8
标注
 62
     3
100
AcDbTrace
 10
972.4224669871363
 20
185.2309956061261
 30
0.0
 11
972.6369096648353
 21
185.2619598181414
 31
0.0
 12
972.4367956899397
 22
185.8898057452307
 32
0.0
 13
972.4367956899397
 23
185.8898057452307
 33
0.0
  0
SOLID
  5
684A
330
6792
100
AcDbEntity
  8
标注
 62
     3
100
AcDbTrace
 10
973.9397539310569
 20
183.864705982047
 30
0.0
 11
973.8938875715581
 21
183.6529497034842
 31
0.0
 12
974.5520895869956
 22
183.6212287642685
 32
0.0
 13
974.5520895869956
 23
183.6212287642685
 33
0.0
  0
MTEXT
  5
684B
330
6792
100
AcDbEntity
  8
标注
 62
     3
100
AcDbMText
 10
973.1082775528381
 20
184.2763661859053
 30
0.0
 40
0.65
 41
0.0
 71
     5
 72
     1
  1
\A1;86\U+00B0
 11
0.7094752841033168
 21
-0.7047303180980071
 31
0.0
 73
     1
 44
1.0
1001
ACAD
1000
MTEXTBEGIN
1070
    73
1070
     1
1070
    44
1040
1.0
1070
    74
1070
     0
1000
MTEXTEND
  0
POINT
  5
684C
330
6792
100
AcDbEntity
  8
DEFPOINTS
 62
     0
100
AcDbPoint
 10
972.7155140612453
 20
184.7989344849242
 30
0.0
  0
POINT
  5
684D
330
6792
100
AcDbEntity
  8
DEFPOINTS
 62
     0
100
AcDbPoint
 10
974.7045164198977
 20
185.7982550644801
 30
0.0
  0
POINT
  5
684E
330
6792
100
AcDbEntity
  8
DEFPOINTS
 62
     0
100
AcDbPoint
 10
944.6191516306033
 20
185.8898057452307
 30
0.0
  0
POINT
  5
684F
330
6792
100
AcDbEntity
  8
DEFPOINTS
 62
     0
100
AcDbPoint
 10
974.8027012476711
 20
185.8898057452306
 30
0.0
  0
POINT
  5
6850
330
6792
100
AcDbEntity
  8
DEFPOINTS
 62
     0
100
AcDbPoint
 10
974.1109927266268
 20
177.3212916227485
 30
0.0
  0
ENDBLK
  5
6794
330
6792
100
AcDbEntity
  8
0
100
AcDbBlockEnd
  0
BLOCK
  5
67B5
330
67B4
100
AcDbEntity
  8
0
100
AcDbBlockBegin
  2
*D207
 70
     1
 10
0.0
 20
0.0
 30
0.0
  3
*D207
  1

  0
LINE
  5
67C1
330
67B4
100
AcDbEntity
  8
标注
370
    -2
100
AcDbLine
 10
946.7109264391854
 20
146.6321063902785
 30
0.0
 11
946.7109264391854
 21
144.1781445298865
 31
0.0
  0
LINE
  5
67C2
330
67B4
100
AcDbEntity
  8
标注
370
    -2
100
AcDbLine
 10
974.7109264390889
 20
146.6321063902785
 30
0.0
 11
974.7109264390889
 21
144.1781445298865
 31
0.0
  0
LINE
  5
67C3
330
67B4
100
AcDbEntity
  8
标注
370
    -2
100
AcDbLine
 10
947.3609264391855
 20
144.4981445298865
 30
0.0
 11
959.779326848414
 21
144.4981445298865
 31
0.0
  0
LINE
  5
67C4
330
67B4
100
AcDbEntity
  8
标注
370
    -2
100
AcDbLine
 10
974.0609264390888
 20
144.4981445298865
 30
0.0
 11
961.6425260298603
 21
144.4981445298865
 31
0.0
  0
SOLID
  5
67C5
330
67B4
100
AcDbEntity
  8
标注
100
AcDbTrace
 10
947.3609264391855
 20
144.6064778632198
 30
0.0
 11
947.3609264391855
 21
144.3898111965532
 31
0.0
 12
946.7109264391854
 22
144.4981445298865
 32
0.0
 13
946.7109264391854
 23
144.4981445298865
 33
0.0
  0
SOLID
  5
67C6
330
67B4
100
AcDbEntity
  8
标注
100
AcDbTrace
 10
974.0609264390888
 20
144.6064778632198
 30
0.0
 11
974.0609264390888
 21
144.3898111965532
 31
0.0
 12
974.7109264390889
 22
144.4981445298865
 32
0.0
 13
974.7109264390889
 23
144.4981445298865
 33
0.0
  0
MTEXT
  5
67C7
330
67B4
100
AcDbEntity
  8
标注
100
AcDbMText
 10
960.7109264391372
 20
144.4981445298865
 30
0.0
 40
0.65
 41
0.0
 71
     5
 72
     1
  1
\A1;28"
 73
     1
 44
1.0
1001
ACAD
1000
MTEXTBEGIN
1070
    73
1070
     1
1070
    44
1040
1.0
1070
    74
1070
     0
1000
MTEXTEND
  0
POINT
  5
67C8
330
67B4
100
AcDbEntity
  8
DEFPOINTS
 62
     0
100
AcDbPoint
 10
946.7109264391854
 20
147.5121063902785
 30
0.0
  0
POINT
  5
67C9
330
67B4
100
AcDbEntity
  8
DEFPOINTS
 62
     0
100
AcDbPoint
 10
974.7109264390889
 20
147.5121063902785
 30
0.0
  0
POINT
  5
67CA
330
67B4
100
AcDbEntity
  8
DEFPOINTS
 62
     0
100
AcDbPoint
 10
974.7109264390889
 20
144.4981445298865
 30
0.0
  0
ENDBLK
  5
67B6
330
67B4
100
AcDbEntity
  8
0
100
AcDbBlockEnd
  0
BLOCK
  5
67CD
330
67CC
100
AcDbEntity
  8
0
100
AcDbBlockBegin
  2
*D208
 70
     1
 10
0.0
 20
0.0
 30
0.0
  3
*D208
  1

  0
LINE
  5
67CF
330
67CC
100
AcDbEntity
  8
标注
370
    -2
100
AcDbLine
 10
945.7109264391934
 20
146.0859814739295
 30
0.0
 11
945.7109264391934
 21
142.3158889264719
 31
0.0
  0
LINE
  5
67D0
330
67CC
100
AcDbEntity
  8
标注
370
    -2
100
AcDbLine
 10
975.7109264390789
 20
146.0859814739295
 30
0.0
 11
975.7109264390789
 21
142.3158889264719
 31
0.0
  0
LINE
  5
67D1
330
67CC
100
AcDbEntity
  8
标注
370
    -2
100
AcDbLine
 10
946.3609264391934
 20
142.6358889264719
 30
0.0
 11
959.7850908320422
 21
142.6358889264719
 31
0.0
  0
LINE
  5
67D2
330
67CC
100
AcDbEntity
  8
标注
370
    -2
100
AcDbLine
 10
975.060926439079
 20
142.6358889264719
 30
0.0
 11
961.6367620462304
 21
142.6358889264719
 31
0.0
  0
SOLID
  5
67D3
330
67CC
100
AcDbEntity
  8
标注
100
AcDbTrace
 10
946.3609264391934
 20
142.7442222598052
 30
0.0
 11
946.3609264391934
 21
142.5275555931386
 31
0.0
 12
945.7109264391934
 22
142.6358889264719
 32
0.0
 13
945.7109264391934
 23
142.6358889264719
 33
0.0
  0
SOLID
  5
67D4
330
67CC
100
AcDbEntity
  8
标注
100
AcDbTrace
 10
975.060926439079
 20
142.7442222598052
 30
0.0
 11
975.060926439079
 21
142.5275555931386
 31
0.0
 12
975.7109264390789
 22
142.6358889264719
 32
0.0
 13
975.7109264390789
 23
142.6358889264719
 33
0.0
  0
MTEXT
  5
67D5
330
67CC
100
AcDbEntity
  8
标注
100
AcDbMText
 10
960.7109264391363
 20
142.6358889264719
 30
0.0
 40
0.65
 41
0.0
 71
     5
 72
     1
  1
\A1;30"
 73
     1
 44
1.0
1001
ACAD
1000
MTEXTBEGIN
1070
    73
1070
     1
1070
    44
1040
1.0
1070
    74
1070
     0
1000
MTEXTEND
  0
POINT
  5
67D6
330
67CC
100
AcDbEntity
  8
DEFPOINTS
 62
     0
100
AcDbPoint
 10
945.7109264391934
 20
146.9659814739294
 30
0.0
  0
POINT
  5
67D7
330
67CC
100
AcDbEntity
  8
DEFPOINTS
 62
     0
100
AcDbPoint
 10
975.7109264390789
 20
146.9659814739294
 30
0.0
  0
POINT
  5
67D8
330
67CC
100
AcDbEntity
  8
DEFPOINTS
 62
     0
100
AcDbPoint
 10
975.7109264390789
 20
142.6358889264719
 30
0.0
  0
ENDBLK
  5
67CE
330
67CC
100
AcDbEntity
  8
0
100
AcDbBlockEnd
  0
BLOCK
  5
67DB
330
67DA
100
AcDbEntity
  8
0
100
AcDbBlockBegin
  2
*D209
 70
     1
 10
0.0
 20
0.0
 30
0.0
  3
*D209
  1

  0
LINE
  5
67DD
330
67DA
100
AcDbEntity
  8
标注
370
    -2
100
AcDbLine
 10
975.1972256516889
 20
147.1184056028593
 30
0.0
 11
977.7023652595268
 21
147.1184056028593
 31
0.0
  0
LINE
  5
67DE
330
67DA
100
AcDbEntity
  8
标注
370
    -2
100
AcDbLine
 10
975.1972256516888
 20
163.1184056028011
 30
0.0
 11
977.7023652595268
 21
163.1184056028011
 31
0.0
  0
LINE
  5
67DF
330
67DA
100
AcDbEntity
  8
标注
370
    -2
100
AcDbLine
 10
977.3823652595266
 20
147.7684056028593
 30
0.0
 11
977.3823652595266
 21
154.2229417556269
 31
0.0
  0
LINE
  5
67E0
330
67DA
100
AcDbEntity
  8
标注
370
    -2
100
AcDbLine
 10
977.3823652595266
 20
162.4684056028011
 30
0.0
 11
977.3823652595266
 21
156.0138694500335
 31
0.0
  0
SOLID
  5
67E1
330
67DA
100
AcDbEntity
  8
标注
100
AcDbTrace
 10
977.2740319261934
 20
147.7684056028593
 30
0.0
 11
977.49069859286
 21
147.7684056028593
 31
0.0
 12
977.3823652595266
 22
147.1184056028593
 32
0.0
 13
977.3823652595266
 23
147.1184056028593
 33
0.0
  0
SOLID
  5
67E2
330
67DA
100
AcDbEntity
  8
标注
100
AcDbTrace
 10
977.2740319261934
 20
162.4684056028011
 30
0.0
 11
977.49069859286
 21
162.4684056028011
 31
0.0
 12
977.3823652595266
 22
163.1184056028011
 32
0.0
 13
977.3823652595266
 23
163.1184056028011
 33
0.0
  0
MTEXT
  5
67E3
330
67DA
100
AcDbEntity
  8
标注
100
AcDbMText
 10
977.3823652595266
 20
155.1184056028304
 30
0.0
 40
0.65
 41
0.0
 71
     5
 72
     1
  1
\A1;16"
 11
0.0000000000000001
 21
1.0
 31
0.0
 73
     1
 44
1.0
1001
ACAD
1000
MTEXTBEGIN
1070
    73
1070
     1
1070
    44
1040
1.0
1070
    74
1070
     0
1000
MTEXTEND
  0
POINT
  5
67E4
330
67DA
100
AcDbEntity
  8
DEFPOINTS
 62
     0
100
AcDbPoint
 10
974.3172256516889
 20
147.1184056028593
 30
0.0
  0
POINT
  5
67E5
330
67DA
100
AcDbEntity
  8
DEFPOINTS
 62
     0
100
AcDbPoint
 10
974.3172256516887
 20
163.1184056028011
 30
0.0
  0
POINT
  5
67E6
330
67DA
100
AcDbEntity
  8
DEFPOINTS
 62
     0
100
AcDbPoint
 10
977.3823652595266
 20
163.1184056028011
 30
0.0
  0
ENDBLK
  5
67DC
330
67DA
100
AcDbEntity
  8
0
100
AcDbBlockEnd
  0
BLOCK
  5
67E9
330
67E8
100
AcDbEntity
  8
0
100
AcDbBlockBegin
  2
*D210
 70
     1
 10
0.0
 20
0.0
 30
0.0
  3
*D210
  1

  0
LINE
  5
67EB
330
67E8
100
AcDbEntity
  8
标注
370
    -2
100
AcDbLine
 10
975.5909264390888
 20
146.1184056028884
 30
0.0
 11
979.6611944981128
 21
146.1184056028884
 31
0.0
  0
LINE
  5
67EC
330
67E8
100
AcDbEntity
  8
标注
370
    -2
100
AcDbLine
 10
975.590926439089
 20
164.1184056028011
 30
0.0
 11
979.6611944981128
 21
164.1184056028011
 31
0.0
  0
LINE
  5
67ED
330
67E8
100
AcDbEntity
  8
标注
370
    -2
100
AcDbLine
 10
979.3411944981128
 20
146.7684056028884
 30
0.0
 11
979.3411944981128
 21
154.2229417556415
 31
0.0
  0
LINE
  5
67EE
330
67E8
100
AcDbEntity
  8
标注
370
    -2
100
AcDbLine
 10
979.3411944981128
 20
163.4684056028011
 30
0.0
 11
979.3411944981128
 21
156.013869450048
 31
0.0
  0
SOLID
  5
67EF
330
67E8
100
AcDbEntity
  8
标注
100
AcDbTrace
 10
979.2328611647795
 20
146.7684056028884
 30
0.0
 11
979.4495278314462
 21
146.7684056028884
 31
0.0
 12
979.3411944981128
 22
146.1184056028884
 32
0.0
 13
979.3411944981128
 23
146.1184056028884
 33
0.0
  0
SOLID
  5
67F0
330
67E8
100
AcDbEntity
  8
标注
100
AcDbTrace
 10
979.2328611647795
 20
163.4684056028011
 30
0.0
 11
979.4495278314462
 21
163.4684056028011
 31
0.0
 12
979.3411944981128
 22
164.1184056028011
 32
0.0
 13
979.3411944981128
 23
164.1184056028011
 33
0.0
  0
MTEXT
  5
67F1
330
67E8
100
AcDbEntity
  8
标注
100
AcDbMText
 10
979.3411944981128
 20
155.1184056028449
 30
0.0
 40
0.65
 41
0.0
 71
     5
 72
     1
  1
\A1;18"
 11
0.0000000000000001
 21
1.0
 31
0.0
 73
     1
 44
1.0
1001
ACAD
1000
MTEXTBEGIN
1070
    73
1070
     1
1070
    44
1040
1.0
1070
    74
1070
     0
1000
MTEXTEND
  0
POINT
  5
67F2
330
67E8
100
AcDbEntity
  8
DEFPOINTS
 62
     0
100
AcDbPoint
 10
974.7109264390889
 20
146.1184056028884
 30
0.0
  0
POINT
  5
67F3
330
67E8
100
AcDbEntity
  8
DEFPOINTS
 62
     0
100
AcDbPoint
 10
974.7109264390889
 20
164.1184056028011
 30
0.0
  0
POINT
  5
67F4
330
67E8
100
AcDbEntity
  8
DEFPOINTS
 62
     0
100
AcDbPoint
 10
979.3411944981128
 20
164.1184056028011
 30
0.0
  0
ENDBLK
  5
67EA
330
67E8
100
AcDbEntity
  8
0
100
AcDbBlockEnd
  0
BLOCK
  5
67F7
330
67F6
100
AcDbEntity
  8
0
100
AcDbBlockBegin
  2
*D211
 70
     1
 10
0.0
 20
0.0
 30
0.0
  3
*D211
  1

  0
LINE
  5
67F9
330
67F6
100
AcDbEntity
  8
标注
370
    -2
100
AcDbLine
 10
946.6321862817174
 20
115.5677538032319
 30
0.0
 11
946.6321862817174
 21
113.3716444723212
 31
0.0
  0
LINE
  5
67FA
330
67F6
100
AcDbEntity
  8
标注
370
    -2
100
AcDbLine
 10
974.7896665965569
 20
115.5677538032319
 30
0.0
 11
974.7896665965569
 21
113.3716444723212
 31
0.0
  0
LINE
  5
67FB
330
67F6
100
AcDbEntity
  8
标注
370
    -2
100
AcDbLine
 10
947.2821862817173
 20
113.6916444723212
 30
0.0
 11
959.022028076245
 21
113.6916444723212
 31
0.0
  0
LINE
  5
67FC
330
67F6
100
AcDbEntity
  8
标注
370
    -2
100
AcDbLine
 10
974.139666596557
 20
113.6916444723212
 30
0.0
 11
962.3998248020294
 21
113.6916444723212
 31
0.0
  0
SOLID
  5
67FD
330
67F6
100
AcDbEntity
  8
标注
100
AcDbTrace
 10
947.2821862817173
 20
113.7999778056546
 30
0.0
 11
947.2821862817173
 21
113.5833111389879
 31
0.0
 12
946.6321862817174
 22
113.6916444723212
 32
0.0
 13
946.6321862817174
 23
113.6916444723212
 33
0.0
  0
SOLID
  5
67FE
330
67F6
100
AcDbEntity
  8
标注
100
AcDbTrace
 10
974.139666596557
 20
113.7999778056546
 30
0.0
 11
974.139666596557
 21
113.5833111389879
 31
0.0
 12
974.7896665965569
 22
113.6916444723212
 32
0.0
 13
974.7896665965569
 23
113.6916444723212
 33
0.0
  0
MTEXT
  5
67FF
330
67F6
100
AcDbEntity
  8
标注
100
AcDbMText
 10
960.7109264391372
 20
113.6916444723212
 30
0.0
 40
0.65
 41
0.0
 71
     5
 72
     1
  1
\A1;28 1/8"
 73
     1
 44
1.0
1001
ACAD
1000
MTEXTBEGIN
1070
    73
1070
     1
1070
    44
1040
1.0
1070
    74
1070
     0
1000
MTEXTEND
  0
POINT
  5
6800
330
67F6
100
AcDbEntity
  8
DEFPOINTS
 62
     0
100
AcDbPoint
 10
946.6321862817174
 20
116.4477538032319
 30
0.0
  0
POINT
  5
6801
330
67F6
100
AcDbEntity
  8
DEFPOINTS
 62
     0
100
AcDbPoint
 10
974.7896665965569
 20
116.4477538032319
 30
0.0
  0
POINT
  5
6802
330
67F6
100
AcDbEntity
  8
DEFPOINTS
 62
     0
100
AcDbPoint
 10
974.7896665965569
 20
113.6916444723212
 30
0.0
  0
ENDBLK
  5
67F8
330
67F6
100
AcDbEntity
  8
0
100
AcDbBlockEnd
  0
BLOCK
  5
6805
330
6804
100
AcDbEntity
  8
0
100
AcDbBlockBegin
  2
*D212
 70
     1
 10
0.0
 20
0.0
 30
0.0
  3
*D212
  1

  0
LINE
  5
6807
330
6804
100
AcDbEntity
  8
标注
370
    -2
100
AcDbLine
 10
975.1972256516889
 20
115.9753128583519
 30
0.0
 11
977.2215199227341
 21
115.9753128583519
 31
0.0
  0
LINE
  5
6808
330
6804
100
AcDbEntity
  8
标注
370
    -2
100
AcDbLine
 10
975.1972256516888
 20
132.1327931732616
 30
0.0
 11
977.2215199227341
 21
132.1327931732616
 31
0.0
  0
LINE
  5
6809
330
6804
100
AcDbEntity
  8
标注
370
    -2
100
AcDbLine
 10
976.9015199227339
 20
116.6253128583519
 30
0.0
 11
976.9015199227339
 21
122.4012903964343
 31
0.0
  0
LINE
  5
680A
330
6804
100
AcDbEntity
  8
标注
370
    -2
100
AcDbLine
 10
976.9015199227339
 20
131.4827931732616
 30
0.0
 11
976.9015199227339
 21
125.7068156351792
 31
0.0
  0
SOLID
  5
680B
330
6804
100
AcDbEntity
  8
标注
100
AcDbTrace
 10
976.7931865894006
 20
116.6253128583519
 30
0.0
 11
977.0098532560673
 21
116.6253128583519
 31
0.0
 12
976.9015199227339
 22
115.9753128583519
 32
0.0
 13
976.9015199227339
 23
115.9753128583519
 33
0.0
  0
SOLID
  5
680C
330
6804
100
AcDbEntity
  8
标注
100
AcDbTrace
 10
976.7931865894006
 20
131.4827931732616
 30
0.0
 11
977.0098532560673
 21
131.4827931732616
 31
0.0
 12
976.9015199227339
 22
132.1327931732616
 32
0.0
 13
976.9015199227339
 23
132.1327931732616
 33
0.0
  0
MTEXT
  5
680D
330
6804
100
AcDbEntity
  8
标注
100
AcDbMText
 10
976.9015199227339
 20
124.0540530158069
 30
0.0
 40
0.65
 41
0.0
 71
     5
 72
     1
  1
\A1;16 1/8"
 11
0.0000000000000001
 21
1.0
 31
0.0
 73
     1
 44
1.0
1001
ACAD
1000
MTEXTBEGIN
1070
    73
1070
     1
1070
    44
1040
1.0
1070
    74
1070
     0
1000
MTEXTEND
  0
POINT
  5
680E
330
6804
100
AcDbEntity
  8
DEFPOINTS
 62
     0
100
AcDbPoint
 10
974.3172256516889
 20
115.9753128583519
 30
0.0
  0
POINT
  5
680F
330
6804
100
AcDbEntity
  8
DEFPOINTS
 62
     0
100
AcDbPoint
 10
974.3172256516887
 20
132.1327931732616
 30
0.0
  0
POINT
  5
6810
330
6804
100
AcDbEntity
  8
DEFPOINTS
 62
     0
100
AcDbPoint
 10
976.9015199227339
 20
132.1327931732616
 30
0.0
  0
ENDBLK
  5
6806
330
6804
100
AcDbEntity
  8
0
100
AcDbBlockEnd
  0
BLOCK
  5
6813
330
6812
100
AcDbEntity
  8
0
100
AcDbBlockBegin
  2
*D213
 70
     1
 10
0.0
 20
0.0
 30
0.0
  3
*D213
  1

  0
LINE
  5
6827
330
6812
100
AcDbEntity
  8
标注
370
    -2
100
AcDbLine
 10
946.2991713600208
 20
115.6660156618057
 30
0.0
 11
945.8327358511819
 21
115.2133149702952
 31
0.0
  0
MTEXT
  5
6828
330
6812
100
AcDbEntity
  8
标注
100
AcDbMText
 10
945.1077219839548
 20
115.2448333404672
 30
0.0
 40
0.65
 41
0.0
 71
     5
 72
     1
  1
\A1;4-R1/2"
 11
0.7175930905215616
 21
0.6964626023238535
 31
0.0
 73
     1
 44
1.0
1001
ACAD
1000
MTEXTBEGIN
1070
    73
1070
     1
1070
    44
1040
1.0
1070
    74
1070
     0
1000
MTEXTEND
  0
LINE
  5
6829
330
6812
100
AcDbEntity
  8
标注
370
    -2
100
AcDbLine
 10
947.104627226585
 20
116.4477538032315
 30
0.0
 11
946.7656068688599
 21
116.1187163533162
 31
0.0
  0
SOLID
  5
682A
330
6812
100
AcDbEntity
  8
标注
100
AcDbTrace
 10
946.2237212447691
 20
115.7437549132789
 30
0.0
 11
946.3746214752728
 21
115.5882764103326
 31
0.0
 12
946.7656068688599
 22
116.1187163533162
 32
0.0
 13
946.7656068688599
 23
116.1187163533162
 33
0.0
  0
POINT
  5
682B
330
6812
100
AcDbEntity
  8
DEFPOINTS
 62
     0
100
AcDbPoint
 10
946.7656068688599
 20
116.1187163533162
 30
0.0
  0
POINT
  5
682C
330
6812
100
AcDbEntity
  8
DEFPOINTS
 62
     0
100
AcDbPoint
 10
947.104627226585
 20
116.4477538032315
 30
0.0
  0
ENDBLK
  5
6814
330
6812
100
AcDbEntity
  8
0
100
AcDbBlockEnd
  0
BLOCK
  5
6869
330
6868
100
AcDbEntity
  8
0
100
AcDbBlockBegin
  2
*D214
 70
     1
 10
0.0
 20
0.0
 30
0.0
  3
*D214
  1

  0
LINE
  5
686B
330
6868
100
AcDbEntity
  8
标注
370
    -2
100
AcDbLine
 10
946.3373761423758
 20
146.8045492495483
 30
0.0
 11
945.8595445542837
 21
146.3638940857054
 31
0.0
  0
MTEXT
  5
686C
330
6868
100
AcDbEntity
  8
标注
100
AcDbMText
 10
945.5970587299947
 20
146.6532465355651
 30
0.0
 40
0.65
 41
0.0
 71
     5
 72
     1
  1
\A1;R3/8"
 11
0.7351255201416807
 21
0.6779310212967271
 31
0.0
 73
     1
 44
1.0
1001
ACAD
1000
MTEXTBEGIN
1070
    73
1070
     1
1070
    44
1040
1.0
1070
    74
1070
     0
1000
MTEXTEND
  0
LINE
  5
686D
330
6868
100
AcDbEntity
  8
标注
370
    -2
100
AcDbLine
 10
947.1046272265855
 20
147.5121063902786
 30
0.0
 11
946.8152077304679
 21
147.2452044133911
 31
0.0
  0
SOLID
  5
686E
330
6868
100
AcDbEntity
  8
标注
100
AcDbTrace
 10
946.2639336150687
 20
146.8841878475636
 30
0.0
 11
946.4108186696829
 21
146.7249106515329
 31
0.0
 12
946.8152077304679
 22
147.2452044133911
 32
0.0
 13
946.8152077304679
 23
147.2452044133911
 33
0.0
  0
POINT
  5
686F
330
6868
100
AcDbEntity
  8
DEFPOINTS
 62
     0
100
AcDbPoint
 10
946.8152077304679
 20
147.2452044133911
 30
0.0
  0
POINT
  5
6870
330
6868
100
AcDbEntity
  8
DEFPOINTS
 62
     0
100
AcDbPoint
 10
947.1046272265855
 20
147.5121063902786
 30
0.0
  0
ENDBLK
  5
686A
330
6868
100
AcDbEntity
  8
0
100
AcDbBlockEnd
  0
ENDSEC
  0
SECTION
  2
ENTITIES
  0
LINE
  5
66FB
330
5F6E
100
AcDbEntity
  8
0
100
AcDbLine
 10
945.7109264391954
 20
146.9659814739294
 30
0.0
 11
945.7109264391954
 21
163.27082973176
 31
0.0
  0
ARC
  5
66FC
330
5F6E
100
AcDbEntity
  8
0
100
AcDbCircle
 10
945.7896665966734
 20
146.9659814739294
 30
0.0
 40
0.07874015748
100
AcDbArc
 50
180.0
 51
225.0
  0
ARC
  5
66FD
330
5F6E
100
AcDbEntity
  8
0
100
AcDbCircle
 10
945.7896665966734
 20
163.27082973176
 30
0.0
 40
0.07874015748
100
AcDbArc
 50
135.0
 51
180.0
  0
LINE
  5
66FE
330
5F6E
100
AcDbEntity
  8
0
100
AcDbLine
 10
946.7109264391954
 20
162.724704815411
 30
0.0
 11
946.7109264391954
 21
147.5121063902785
 31
0.0
  0
LINE
  5
66FF
330
5F6E
100
AcDbEntity
  8
0
100
AcDbLine
 10
947.1046272265855
 20
147.1184056028593
 30
0.0
 11
974.3172256516889
 21
147.1184056028593
 31
0.0
  0
LINE
  5
6700
330
5F6E
100
AcDbEntity
  8
0
100
AcDbLine
 10
974.3172256516889
 20
163.1184056028011
 30
0.0
 11
947.1046272265855
 21
163.1184056028011
 31
0.0
  0
ARC
  5
6701
330
5F6E
100
AcDbEntity
  8
0
100
AcDbCircle
 10
947.1046272265855
 20
162.724704815411
 30
0.0
 40
0.3937007874
100
AcDbArc
 50
90.0
 51
180.0
  0
LINE
  5
6702
330
5F6E
100
AcDbEntity
  8
0
100
AcDbLine
 10
974.710926439079
 20
147.5121063902785
 30
0.0
 11
974.710926439079
 21
162.724704815411
 31
0.0
  0
LINE
  5
6703
330
5F6E
100
AcDbEntity
  8
0
100
AcDbLine
 10
974.8633505680379
 20
164.1184056028011
 30
0.0
 11
946.5585023102365
 21
164.1184056028011
 31
0.0
  0
ARC
  5
6704
330
5F6E
100
AcDbEntity
  8
0
100
AcDbCircle
 10
946.5585023102365
 20
164.0396654453231
 30
0.0
 40
0.07874015748
100
AcDbArc
 50
90.0
 51
135.0
  0
ARC
  5
6705
330
5F6E
100
AcDbEntity
  8
0
100
AcDbCircle
 10
974.8633505680379
 20
164.0396654453231
 30
0.0
 40
0.07874015748
100
AcDbArc
 50
45.0
 51
90.0
  0
LINE
  5
6706
330
5F6E
100
AcDbEntity
  8
0
100
AcDbLine
 10
945.7339888973699
 20
163.3265074310635
 30
0.0
 11
946.502824610933
 21
164.0953431446266
 31
0.0
  0
LINE
  5
6707
330
5F6E
100
AcDbEntity
  8
0
100
AcDbLine
 10
975.6878639809045
 20
163.3265074310635
 30
0.0
 11
974.9190282673414
 21
164.0953431446266
 31
0.0
  0
LINE
  5
6708
330
5F6E
100
AcDbEntity
  8
0
100
AcDbLine
 10
975.7109264390789
 20
146.9659814739294
 30
0.0
 11
975.7109264390789
 21
163.27082973176
 31
0.0
  0
ARC
  5
6709
330
5F6E
100
AcDbEntity
  8
0
100
AcDbCircle
 10
975.632186281601
 20
146.9659814739294
 30
0.0
 40
0.07874015748
100
AcDbArc
 50
315.0
 51
0.0
  0
ARC
  5
670A
330
5F6E
100
AcDbEntity
  8
0
100
AcDbCircle
 10
975.632186281601
 20
163.27082973176
 30
0.0
 40
0.07874015748
100
AcDbArc
 50
0.0
 51
45.0
  0
LINE
  5
670B
330
5F6E
100
AcDbEntity
  8
0
100
AcDbLine
 10
974.9190282673414
 20
146.1414680610629
 30
0.0
 11
975.6878639809045
 21
146.910303774626
 31
0.0
  0
ARC
  5
670C
330
5F6E
100
AcDbEntity
  8
0
100
AcDbCircle
 10
974.8633505680379
 20
146.1971457603664
 30
0.0
 40
0.07874015748
100
AcDbArc
 50
270.0
 51
315.0
  0
LINE
  5
670D
330
5F6E
100
AcDbEntity
  8
0
100
AcDbLine
 10
946.5585023102365
 20
146.1184056028884
 30
0.0
 11
974.8633505680379
 21
146.1184056028884
 31
0.0
  0
ARC
  5
670E
330
5F6E
100
AcDbEntity
  8
0
100
AcDbCircle
 10
946.5585023102365
 20
146.1971457603664
 30
0.0
 40
0.07874015748
100
AcDbArc
 50
225.0
 51
270.0
  0
LINE
  5
670F
330
5F6E
100
AcDbEntity
  8
0
100
AcDbLine
 10
945.7339888973699
 20
146.910303774626
 30
0.0
 11
946.502824610933
 21
146.1414680610629
 31
0.0
  0
CIRCLE
  5
6710
330
5F6E
100
AcDbEntity
  8
0
100
AcDbCircle
 10
960.7109264391372
 20
157.8979331618917
 30
0.0
 40
2.28346456692
  0
CIRCLE
  5
6711
330
5F6E
100
AcDbEntity
  8
0
100
AcDbCircle
 10
960.7109264391372
 20
157.8979331618917
 30
0.0
 40
2.1653543307
  0
CIRCLE
  5
6712
330
5F6E
100
AcDbEntity
  8
0
100
AcDbCircle
 10
960.7109264391372
 20
157.8979331618917
 30
0.0
 40
1.79133858267
  0
LINE
  5
6713
330
5F6E
100
AcDbEntity
  8
细实线
 48
5.0
100
AcDbLine
 10
947.6992302267651
 20
162.1301018152314
 30
0.0
 11
958.5371168434692
 21
158.5970485101149
 31
0.0
  0
LINE
  5
6714
330
5F6E
100
AcDbEntity
  8
0
100
AcDbLine
 10
945.7109264395155
 20
185.8898057452307
 30
0.0
 11
946.6191516320002
 21
185.8898057452307
 31
0.0
  0
ARC
  5
6715
330
5F6E
100
AcDbEntity
  8
虚线
 48
2.5
370
     9
100
AcDbCircle
 10
946.6191516306032
 20
185.7913805483977
 30
0.0
 40
0.09842519685
100
AcDbArc
 50
4.005089391076599
 51
90.0
  0
LINE
  5
6716
330
5F6E
100
AcDbEntity
  8
0
100
AcDbLine
 10
945.7109264395155
 20
185.8307506271367
 30
0.0
 11
946.6191410857907
 21
185.8307506271367
 31
0.0
  0
LINE
  5
6717
330
5F6E
100
AcDbEntity
  8
0
100
AcDbLine
 10
945.7109264395155
 20
185.8898057452307
 30
0.0
 11
945.7109264395155
 21
185.8307506271367
 31
0.0
  0
LINE
  5
6718
330
5F6E
100
AcDbEntity
  8
虚线
 48
2.5
370
     9
100
AcDbLine
 10
946.7173364583475
 20
185.7982550644802
 30
0.0
 11
947.3108601516475
 21
177.3212916227776
 31
0.0
  0
ARC
  5
6719
330
5F6E
100
AcDbEntity
  8
虚线
 48
2.5
370
     9
100
AcDbCircle
 10
947.7035994627119
 20
177.3487896871366
 30
0.0
 40
0.3937007874
100
AcDbArc
 50
184.0050893910766
 51
269.3641264640679
  0
LINE
  5
671A
330
5F6E
100
AcDbEntity
  8
0
100
AcDbLine
 10
946.6584150139722
 20
185.7941303965481
 30
0.0
 11
947.2520031289212
 21
177.3163914110764
 31
0.0
  0
ARC
  5
671B
330
5F6E
100
AcDbEntity
  8
0
100
AcDbCircle
 10
946.6191410857907
 20
185.7913805483977
 30
0.0
 40
0.03937007874
100
AcDbArc
 50
4.00515027606727
 51
90.0
  0
LINE
  5
671C
330
5F6E
100
AcDbEntity
  8
0
100
AcDbLine
 10
946.6191516306032
 20
185.8898057452307
 30
0.0
 11
974.8027012476711
 21
185.8898057452307
 31
0.0
  0
LINE
  5
671D
330
5F6E
100
AcDbEntity
  8
0
100
AcDbLine
 10
975.7109264390789
 20
185.8898057452307
 30
0.0
 11
974.8027012476711
 21
185.8898057452307
 31
0.0
  0
ARC
  5
671E
330
5F6E
100
AcDbEntity
  8
虚线
 48
2.5
370
     9
100
AcDbCircle
 10
974.8027012476711
 20
185.7913805483977
 30
0.0
 40
0.09842519685
100
AcDbArc
 50
90.0
 51
175.9949106089234
  0
LINE
  5
671F
330
5F6E
100
AcDbEntity
  8
虚线
 48
2.5
370
     9
100
AcDbLine
 10
974.7045164198977
 20
185.7982550644802
 30
0.0
 11
974.1109927266268
 21
177.3212916227776
 31
0.0
  0
ARC
  5
6720
330
5F6E
100
AcDbEntity
  8
虚线
 48
2.5
370
     9
100
AcDbCircle
 10
973.7182534155625
 20
177.3487896871366
 30
0.0
 40
0.3937007874
100
AcDbArc
 50
270.635873535932
 51
355.9949106089234
  0
LINE
  5
6721
330
5F6E
100
AcDbEntity
  8
虚线
 48
2.5
370
     9
100
AcDbLine
 10
973.7226226515092
 20
176.9551131450708
 30
0.0
 11
963.0673871464285
 21
176.8265340917414
 31
0.0
  0
LINE
  5
6722
330
5F6E
100
AcDbEntity
  8
虚线
 48
2.5
370
     9
100
AcDbLine
 10
958.3544662537649
 20
176.8265340917414
 30
0.0
 11
963.0673871464285
 21
176.8265340917414
 31
0.0
  0
LINE
  5
6723
330
5F6E
100
AcDbEntity
  8
中心线
 48
2.0
100
AcDbLine
 10
960.7109264391372
 20
175.2134965797698
 30
0.0
 11
960.7109264391372
 21
178.4395716037131
 31
0.0
  0
ARC
  5
6724
330
5F6E
100
AcDbEntity
  8
虚线
 48
2.5
370
     9
100
AcDbCircle
 10
963.0673871464576
 20
176.7084238554953
 30
0.0
 40
0.11811023622
100
AcDbArc
 50
90.0
 51
153.4349489556638
  0
ARC
  5
6725
330
5F6E
100
AcDbEntity
  8
虚线
 48
2.5
370
     9
100
AcDbCircle
 10
958.3544657318169
 20
176.7084238554953
 30
0.0
 40
0.11811023622
100
AcDbArc
 50
26.56505132846261
 51
90.0
  0
ARC
  5
6726
330
5F6E
100
AcDbEntity
  8
虚线
 48
2.5
370
     9
100
AcDbCircle
 10
962.8397826996414
 20
176.6493687374014
 30
0.0
 40
0.05905511811
100
AcDbArc
 50
270.0000000416882
 51
333.4349483493753
  0
ARC
  5
6727
330
5F6E
100
AcDbEntity
  8
虚线
 48
2.5
370
     9
100
AcDbCircle
 10
958.582070178633
 20
176.6493687374014
 30
0.0
 40
0.05905511811
100
AcDbArc
 50
206.5650522188776
 51
269.9999999583118
  0
LINE
  5
6728
330
5F6E
100
AcDbEntity
  8
虚线
 48
2.5
370
     9
100
AcDbLine
 10
958.5292496752416
 20
176.6229584857201
 30
0.0
 11
958.4601067386291
 21
176.761244358916
 31
0.0
  0
LINE
  5
6729
330
5F6E
100
AcDbEntity
  8
虚线
 48
2.5
370
     9
100
AcDbLine
 10
962.8397826996414
 20
176.5903136192783
 30
0.0
 11
962.4825799824218
 21
176.5903136192783
 31
0.0
  0
LINE
  5
672A
330
5F6E
100
AcDbEntity
  8
虚线
 48
2.5
370
     9
100
AcDbLine
 10
958.9392728958234
 20
176.5312585011843
 30
0.0
 11
958.9392728958234
 21
176.5903136192783
 31
0.0
  0
LINE
  5
672B
330
5F6E
100
AcDbEntity
  8
虚线
 48
2.5
370
     9
100
AcDbLine
 10
962.8926032030328
 20
176.6229584857201
 30
0.0
 11
962.9617461396453
 21
176.761244358916
 31
0.0
  0
LINE
  5
672C
330
5F6E
100
AcDbEntity
  8
虚线
 48
2.5
370
     9
100
AcDbLine
 10
962.4825799824218
 20
176.5312585011843
 30
0.0
 11
962.4825799824218
 21
176.5903136192783
 31
0.0
  0
LINE
  5
672D
330
5F6E
100
AcDbEntity
  8
虚线
 48
2.5
370
     9
100
AcDbLine
 10
958.9392728958234
 20
176.5903136192783
 30
0.0
 11
958.582070178633
 21
176.5903136192783
 31
0.0
  0
LINE
  5
672E
330
5F6E
100
AcDbEntity
  8
虚线
 48
2.5
370
     9
100
AcDbLine
 10
962.4825799824218
 20
176.5903136192783
 30
0.0
 11
958.9392728958234
 21
176.5903136192783
 31
0.0
  0
LINE
  5
672F
330
5F6E
100
AcDbEntity
  8
0
100
AcDbLine
 10
962.9454237064244
 20
176.5965482340098
 30
0.0
 11
963.0145666430369
 21
176.7348341072348
 31
0.0
  0
ARC
  5
6730
330
5F6E
100
AcDbEntity
  8
0
100
AcDbCircle
 10
963.0673871464576
 20
176.7084238554953
 30
0.0
 40
0.05905511811
100
AcDbArc
 50
90.0
 51
153.4349489556638
  0
LINE
  5
6731
330
5F6E
100
AcDbEntity
  8
0
100
AcDbLine
 10
973.7231937966614
 20
176.8952863052973
 30
0.0
 11
963.0673871464285
 21
176.7674789736184
 31
0.0
  0
ARC
  5
6732
330
5F6E
100
AcDbEntity
  8
0
100
AcDbCircle
 10
962.8397826996414
 20
176.6493687374014
 30
0.0
 40
0.11811023622
100
AcDbArc
 50
270.0000000416882
 51
333.4349483493753
  0
LINE
  5
6733
330
5F6E
100
AcDbEntity
  8
0
100
AcDbLine
 10
962.8397826996414
 20
176.5312585011843
 30
0.0
 11
962.4825799824218
 21
176.5312585011843
 31
0.0
  0
LINE
  5
6734
330
5F6E
100
AcDbEntity
  8
0
100
AcDbLine
 10
962.4825799824218
 20
176.5312585011843
 30
0.0
 11
958.9392728958234
 21
176.5312585011843
 31
0.0
  0
LINE
  5
6735
330
5F6E
100
AcDbEntity
  8
0
100
AcDbLine
 10
958.9392728958234
 20
176.5312585011843
 30
0.0
 11
958.582070178633
 21
176.5312585011843
 31
0.0
  0
ARC
  5
6736
330
5F6E
100
AcDbEntity
  8
0
100
AcDbCircle
 10
958.582070178633
 20
176.6493687374014
 30
0.0
 40
0.11811023622
100
AcDbArc
 50
206.5650522188776
 51
269.9999999583118
  0
LINE
  5
6737
330
5F6E
100
AcDbEntity
  8
0
100
AcDbLine
 10
958.4764291718208
 20
176.5965482340098
 30
0.0
 11
958.4072862352375
 21
176.7348341072348
 31
0.0
  0
ARC
  5
6738
330
5F6E
100
AcDbEntity
  8
0
100
AcDbCircle
 10
958.3544657318169
 20
176.7084238554953
 30
0.0
 40
0.05905511811
100
AcDbArc
 50
26.56505132846261
 51
90.0
  0
LINE
  5
6739
330
5F6E
100
AcDbEntity
  8
0
100
AcDbLine
 10
975.7109264390789
 20
185.8307506271367
 30
0.0
 11
974.8027117924836
 21
185.8307506271367
 31
0.0
  0
ARC
  5
673A
330
5F6E
100
AcDbEntity
  8
0
100
AcDbCircle
 10
974.8027117924836
 20
185.7913805483977
 30
0.0
 40
0.03937007874
100
AcDbArc
 50
90.0
 51
175.9948497239327
  0
LINE
  5
673B
330
5F6E
100
AcDbEntity
  8
0
100
AcDbLine
 10
974.7634378643022
 20
185.7941303965481
 30
0.0
 11
974.1698497493242
 21
177.3163914110764
 31
0.0
  0
ARC
  5
673C
330
5F6E
100
AcDbEntity
  8
0
100
AcDbCircle
 10
973.7181995752223
 20
177.3480146650536
 30
0.0
 40
0.4527559055100001
100
AcDbArc
 50
270.6320262214024
 51
355.9948497239327
  0
LINE
  5
673D
330
5F6E
100
AcDbEntity
  8
0
100
AcDbLine
 10
975.7109264390789
 20
185.8898057452307
 30
0.0
 11
975.7109264390789
 21
185.8307506271367
 31
0.0
  0
LINE
  5
673E
330
5F6E
100
AcDbEntity
  8
虚线
 48
2.5
370
     9
100
AcDbLine
 10
947.6992302267651
 20
176.9551131450708
 30
0.0
 11
958.3544657318459
 21
176.8265340917414
 31
0.0
  0
LINE
  5
673F
330
5F6E
100
AcDbEntity
  8
0
100
AcDbLine
 10
947.698659081613
 20
176.8952863052973
 30
0.0
 11
958.3544657318459
 21
176.7674789736184
 31
0.0
  0
ARC
  5
6740
330
5F6E
100
AcDbEntity
  8
0
100
AcDbCircle
 10
947.7036533030521
 20
177.3480146650536
 30
0.0
 40
0.4527559055100001
100
AcDbArc
 50
184.0051502760672
 51
269.3679737785976
  0
POINT
  5
6741
330
5F6E
100
AcDbEntity
  8
0
100
AcDbPoint
 10
946.7109264391954
 20
185.8898057452307
 30
0.0
  0
POINT
  5
6742
330
5F6E
100
AcDbEntity
  8
0
100
AcDbPoint
 10
974.710926439079
 20
185.8898057452307
 30
0.0
  0
LINE
  5
6743
330
5F6E
100
AcDbEntity
  8
粗实线
370
    -2
100
AcDbLine
 10
947.1046272265855
 20
163.1184056028011
 30
0.0
 11
947.6992302267651
 21
162.5238026026506
 31
0.0
  0
LINE
  5
6744
330
5F6E
100
AcDbEntity
  8
粗实线
370
    -2
100
AcDbLine
 10
946.7109264391954
 20
162.724704815411
 30
0.0
 11
947.3055294393459
 21
162.1301018152605
 31
0.0
  0
ARC
  5
6745
330
5F6E
100
AcDbEntity
  8
0
100
AcDbCircle
 10
974.3172256516889
 20
162.724704815411
 30
0.0
 40
0.3937007874
100
AcDbArc
 50
0.0
 51
90.0
  0
ARC
  5
6746
330
5F6E
100
AcDbEntity
  8
0
100
AcDbCircle
 10
947.1046272265855
 20
147.5121063902785
 30
0.0
 40
0.3937007874
100
AcDbArc
 50
180.0
 51
270.0
  0
ARC
  5
6747
330
5F6E
100
AcDbEntity
  8
0
100
AcDbCircle
 10
974.3172256516889
 20
147.5121063902785
 30
0.0
 40
0.3937007874
100
AcDbArc
 50
270.0
 51
0.0
  0
LINE
  5
6748
330
5F6E
100
AcDbEntity
  8
细实线
 48
5.0
100
AcDbLine
 10
947.6992302267651
 20
148.1067093904582
 30
0.0
 11
958.8851674817167
 21
156.5265051988405
 31
0.0
  0
LINE
  5
6749
330
5F6E
100
AcDbEntity
  8
细实线
 48
5.0
100
AcDbLine
 10
973.7226226515092
 20
148.106709391535
 30
0.0
 11
962.5366853965868
 21
156.5265051988987
 31
0.0
  0
LINE
  5
674A
330
5F6E
100
AcDbEntity
  8
0
100
AcDbLine
 10
947.3055294393459
 20
162.1301018152314
 30
0.0
 11
947.3055294393459
 21
148.106709390429
 31
0.0
  0
LINE
  5
674B
330
5F6E
100
AcDbEntity
  8
0
100
AcDbLine
 10
947.6992302267651
 20
147.713008603068
 30
0.0
 11
947.6992302267651
 21
162.1301018152314
 31
0.0
  0
LINE
  5
674C
330
5F6E
100
AcDbEntity
  8
0
100
AcDbLine
 10
947.6992302267651
 20
162.5238026026506
 30
0.0
 11
947.6992302267651
 21
162.1301018152314
 31
0.0
  0
LINE
  5
674D
330
5F6E
100
AcDbEntity
  8
0
100
AcDbLine
 10
947.6992302267651
 20
162.5238026026506
 30
0.0
 11
973.7226226509271
 21
162.5238026020685
 31
0.0
  0
LINE
  5
674E
330
5F6E
100
AcDbEntity
  8
0
100
AcDbLine
 10
974.1163234377934
 20
162.1301018141545
 30
0.0
 11
947.6992302267651
 21
162.1301018152314
 31
0.0
  0
LINE
  5
674F
330
5F6E
100
AcDbEntity
  8
0
100
AcDbLine
 10
947.3055294393459
 20
162.1301018152605
 30
0.0
 11
947.6992302267651
 21
162.1301018152314
 31
0.0
  0
ARC
  5
6750
330
5F6E
100
AcDbEntity
  8
粗实线
370
    -2
100
AcDbCircle
 10
947.6992302267651
 20
162.1301018152314
 30
0.0
 40
0.3937007874
100
AcDbArc
 50
90.0
 51
180.0
  0
LINE
  5
6751
330
5F6E
100
AcDbEntity
  8
细实线
 48
5.0
100
AcDbLine
 10
973.7226226515092
 20
162.1301018152314
 30
0.0
 11
962.8847360348052
 21
158.5970485101149
 31
0.0
  0
LINE
  5
6752
330
5F6E
100
AcDbEntity
  8
粗实线
370
    -2
100
AcDbLine
 10
974.3172256516889
 20
163.1184056028011
 30
0.0
 11
973.7226226515092
 21
162.5238026026506
 31
0.0
  0
LINE
  5
6753
330
5F6E
100
AcDbEntity
  8
粗实线
370
    -2
100
AcDbLine
 10
974.710926439079
 20
162.724704815411
 30
0.0
 11
974.1163234389285
 21
162.1301018152605
 31
0.0
  0
LINE
  5
6754
330
5F6E
100
AcDbEntity
  8
0
100
AcDbLine
 10
974.1163234389285
 20
162.1301018152314
 30
0.0
 11
974.1163234389285
 21
148.106709390429
 31
0.0
  0
LINE
  5
6755
330
5F6E
100
AcDbEntity
  8
0
100
AcDbLine
 10
973.7226226515092
 20
147.713008603068
 30
0.0
 11
973.7226226515092
 21
162.1301018152314
 31
0.0
  0
LINE
  5
6756
330
5F6E
100
AcDbEntity
  8
0
100
AcDbLine
 10
973.7226226515092
 20
162.5238026026506
 30
0.0
 11
973.7226226515092
 21
162.1301018152314
 31
0.0
  0
LINE
  5
6757
330
5F6E
100
AcDbEntity
  8
0
100
AcDbLine
 10
974.1163234389285
 20
162.1301018152605
 30
0.0
 11
973.7226226515092
 21
162.1301018152314
 31
0.0
  0
ARC
  5
6758
330
5F6E
100
AcDbEntity
  8
粗实线
370
    -2
100
AcDbCircle
 10
973.7226226515092
 20
162.1301018152314
 30
0.0
 40
0.3937007874
100
AcDbArc
 50
0.0
 51
90.0
  0
LINE
  5
6759
330
5F6E
100
AcDbEntity
  8
粗实线
370
    -2
100
AcDbLine
 10
947.1046272265855
 20
147.1184056028884
 30
0.0
 11
947.6992302267651
 21
147.7130086030389
 31
0.0
  0
LINE
  5
675A
330
5F6E
100
AcDbEntity
  8
粗实线
370
    -2
100
AcDbLine
 10
946.7109264391954
 20
147.5121063902785
 30
0.0
 11
947.3055294393459
 21
148.106709390429
 31
0.0
  0
LINE
  5
675B
330
5F6E
100
AcDbEntity
  8
0
100
AcDbLine
 10
947.6992302267651
 20
147.7130086030389
 30
0.0
 11
947.6992302267651
 21
148.1067093904582
 31
0.0
  0
LINE
  5
675C
330
5F6E
100
AcDbEntity
  8
0
100
AcDbLine
 10
947.6992302267651
 20
147.7130086030389
 30
0.0
 11
973.7226226509271
 21
147.713008603621
 31
0.0
  0
LINE
  5
675D
330
5F6E
100
AcDbEntity
  8
0
100
AcDbLine
 10
974.1163234377934
 20
148.106709391535
 30
0.0
 11
947.6992302267651
 21
148.1067093904582
 31
0.0
  0
LINE
  5
675E
330
5F6E
100
AcDbEntity
  8
0
100
AcDbLine
 10
947.3055294393459
 20
148.106709390429
 30
0.0
 11
947.6992302267651
 21
148.1067093904582
 31
0.0
  0
ARC
  5
675F
330
5F6E
100
AcDbEntity
  8
粗实线
370
    -2
100
AcDbCircle
 10
947.6992302267651
 20
148.1067093904582
 30
0.0
 40
0.3937007874
100
AcDbArc
 50
180.0
 51
270.0
  0
LINE
  5
6760
330
5F6E
100
AcDbEntity
  8
粗实线
370
    -2
100
AcDbLine
 10
974.3172256516889
 20
147.1184056028884
 30
0.0
 11
973.7226226515092
 21
147.7130086030389
 31
0.0
  0
LINE
  5
6761
330
5F6E
100
AcDbEntity
  8
粗实线
370
    -2
100
AcDbLine
 10
974.710926439079
 20
147.5121063902785
 30
0.0
 11
974.1163234389285
 21
148.106709390429
 31
0.0
  0
LINE
  5
6762
330
5F6E
100
AcDbEntity
  8
0
100
AcDbLine
 10
973.7226226515092
 20
147.7130086030389
 30
0.0
 11
973.7226226515092
 21
148.106709391535
 31
0.0
  0
LINE
  5
6763
330
5F6E
100
AcDbEntity
  8
0
100
AcDbLine
 10
974.1163234389285
 20
148.106709390429
 30
0.0
 11
973.7226226515092
 21
148.106709391535
 31
0.0
  0
ARC
  5
6764
330
5F6E
100
AcDbEntity
  8
粗实线
370
    -2
100
AcDbCircle
 10
973.7226226515092
 20
148.1067093904582
 30
0.0
 40
0.3937007874
100
AcDbArc
 50
270.0
 51
0.0
  0
LINE
  5
6765
330
5F6E
100
AcDbEntity
  8
0
100
AcDbLine
 10
946.6191410857907
 20
185.8307506271367
 30
0.0
 11
974.8027117924836
 21
185.8307506271367
 31
0.0
  0
LINE
  5
6766
330
5F6E
100
AcDbEntity
  8
0
100
AcDbLine
 10
958.3544657318169
 20
176.7674789736184
 30
0.0
 11
963.0673871464285
 21
176.7674789736184
 31
0.0
  0
LINE
  5
6767
330
5F6E
100
AcDbEntity
  8
中心线
  6
Continuous
 62
     1
100
AcDbLine
 10
974.3172256516889
 20
132.1327931732616
 30
0.0
 11
947.1046272265855
 21
132.1327931732616
 31
0.0
  0
ARC
  5
6768
330
5F6E
100
AcDbEntity
  8
中心线
  6
Continuous
 62
     1
100
AcDbCircle
 10
947.1046272265855
 20
131.6603522283935
 30
0.0
 40
0.47244094488
100
AcDbArc
 50
90.0
 51
180.0
  0
LINE
  5
6769
330
5F6E
100
AcDbEntity
  8
中心线
  6
Continuous
 62
     1
100
AcDbLine
 10
946.6321862817174
 20
131.6603522283935
 30
0.0
 11
946.6321862817174
 21
116.4477538032319
 31
0.0
  0
ARC
  5
676A
330
5F6E
100
AcDbEntity
  8
中心线
  6
Continuous
 62
     1
100
AcDbCircle
 10
947.1046272265855
 20
116.4477538032319
 30
0.0
 40
0.47244094488
100
AcDbArc
 50
180.0
 51
270.0
  0
LINE
  5
676B
330
5F6E
100
AcDbEntity
  8
中心线
  6
Continuous
 62
     1
100
AcDbLine
 10
947.1046272265855
 20
115.9753128583638
 30
0.0
 11
974.3172256516889
 21
115.9753128583638
 31
0.0
  0
LINE
  5
676C
330
5F6E
100
AcDbEntity
  8
中心线
  6
Continuous
 62
     1
100
AcDbLine
 10
974.7896665965569
 20
116.4477538032319
 30
0.0
 11
974.7896665965569
 21
131.6603522283935
 31
0.0
  0
ARC
  5
676D
330
5F6E
100
AcDbEntity
  8
中心线
  6
Continuous
 62
     1
100
AcDbCircle
 10
974.3172256516889
 20
116.4477538032319
 30
0.0
 40
0.47244094488
100
AcDbArc
 50
270.0
 51
0.0
  0
ARC
  5
676E
330
5F6E
100
AcDbEntity
  8
中心线
  6
Continuous
 62
     1
100
AcDbCircle
 10
974.3172256516889
 20
131.6603522283935
 30
0.0
 40
0.47244094488
100
AcDbArc
 50
0.0
 51
90.0
  0
TEXT
  5
677F
330
5F6E
100
AcDbEntity
  8
标注
100
AcDbText
 10
957.2245077303193
 20
172.162413222977
 30
0.0
 40
0.7874015748031497
  1
FRONT VIEW
100
AcDbText
  0
TEXT
  5
6780
330
5F6E
100
AcDbEntity
  8
标注
100
AcDbText
 10
955.7387115093426
 20
138.4567374607897
 30
0.0
 40
0.7874015748031497
  1
OVERHEAD VIEW
100
AcDbText
  0
DIMENSION
  5
6781
330
5F6E
100
AcDbEntity
  8
标注
100
AcDbDimension
  2
*D206
 10
974.1109927266268
 20
177.3212916227485
 30
0.0
 11
973.1082775528381
 21
184.2763661859054
 31
0.0
 70
   162
 71
     5
 42
1.500894330303392
  3
STANDARD
100
AcDb2LineAngularDimension
 13
944.6191516306033
 23
185.8898057452307
 33
0.0
 14
974.8027012476711
 24
185.8898057452307
 34
0.0
 15
974.7045164198977
 25
185.7982550644802
 35
0.0
 16
972.7155140612453
 26
184.7989344849242
 36
0.0
  0
DIMENSION
  5
6784
330
5F6E
100
AcDbEntity
  8
标注
100
AcDbDimension
  2
*D205
 10
978.1444269209584
 20
176.9515340917415
 30
0.0
 11
978.1444269209584
 21
181.4206699184862
 31
0.0
 70
    32
 71
     5
 42
8.938271653489209
  3
副本STANDARD
100
AcDbAlignedDimension
 13
975.7109264390791
 23
185.8898057452307
 33
0.0
 14
975.7879409891211
 24
176.9515340917415
 34
0.0
 50
90.0
100
AcDbRotatedDimension
  0
DIMENSION
  5
67B3
330
5F6E
100
AcDbEntity
  8
标注
100
AcDbDimension
  2
*D207
 10
974.7109264390889
 20
144.4981445298865
 30
0.0
 11
960.7109264391372
 21
144.4981445298865
 31
0.0
 70
    32
 71
     5
 42
27.99999999990337
  3
副本STANDARD
100
AcDbAlignedDimension
 13
946.7109264391854
 23
147.5121063902785
 33
0.0
 14
974.7109264390889
 24
147.5121063902785
 34
0.0
100
AcDbRotatedDimension
  0
DIMENSION
  5
67CB
330
5F6E
100
AcDbEntity
  8
标注
100
AcDbDimension
  2
*D208
 10
975.7109264390789
 20
142.6358889264719
 30
0.0
 11
960.7109264391363
 21
142.6358889264719
 31
0.0
 70
    32
 71
     5
 42
29.99999999988552
  3
副本STANDARD
100
AcDbAlignedDimension
 13
945.7109264391934
 23
146.9659814739294
 33
0.0
 14
975.7109264390789
 24
146.9659814739294
 34
0.0
100
AcDbRotatedDimension
  0
DIMENSION
  5
67D9
330
5F6E
100
AcDbEntity
  8
标注
100
AcDbDimension
  2
*D209
 10
977.3823652595266
 20
163.1184056028011
 30
0.0
 11
977.3823652595266
 21
155.1184056028304
 31
0.0
 70
    32
 71
     5
 42
15.99999999994179
  3
副本STANDARD
100
AcDbAlignedDimension
 13
974.3172256516889
 23
147.1184056028593
 33
0.0
 14
974.3172256516887
 24
163.1184056028011
 34
0.0
 50
90.0
100
AcDbRotatedDimension
  0
DIMENSION
  5
67E7
330
5F6E
100
AcDbEntity
  8
标注
100
AcDbDimension
  2
*D210
 10
979.3411944981128
 20
164.1184056028011
 30
0.0
 11
979.3411944981128
 21
155.1184056028449
 31
0.0
 70
    32
 71
     5
 42
17.99999999991269
  3
副本STANDARD
100
AcDbAlignedDimension
 13
974.7109264390889
 23
146.1184056028884
 33
0.0
 14
974.7109264390889
 24
164.1184056028011
 34
0.0
 50
90.0
100
AcDbRotatedDimension
  0
DIMENSION
  5
67F5
330
5F6E
100
AcDbEntity
  8
标注
100
AcDbDimension
  2
*D211
 10
974.7896665965569
 20
113.6916444723212
 30
0.0
 11
960.7109264391372
 21
113.6916444723212
 31
0.0
 70
    32
 71
     5
 42
28.15748031483963
  3
副本STANDARD
100
AcDbAlignedDimension
 13
946.6321862817174
 23
116.4477538032319
 33
0.0
 14
974.7896665965569
 24
116.4477538032319
 34
0.0
100
AcDbRotatedDimension
  0
DIMENSION
  5
6803
330
5F6E
100
AcDbEntity
  8
标注
100
AcDbDimension
  2
*D212
 10
976.9015199227339
 20
132.1327931732616
 30
0.0
 11
976.9015199227339
 21
124.0540530158069
 31
0.0
 70
    32
 71
     5
 42
16.15748031490972
  3
副本STANDARD
100
AcDbAlignedDimension
 13
974.3172256516889
 23
115.9753128583519
 33
0.0
 14
974.3172256516887
 24
132.1327931732616
 34
0.0
 50
90.0
100
AcDbRotatedDimension
  0
DIMENSION
  5
6811
330
5F6E
100
AcDbEntity
  8
标注
100
AcDbDimension
  2
*D213
 10
947.104627226585
 20
116.4477538032315
 30
0.0
 11
945.1077219839548
 21
115.2448333404672
 31
0.0
 70
   164
  1
4-<>
 71
     5
 42
0.4724409448798497
  3
副本STANDARD
100
AcDbRadialDimension
 15
946.7656068688599
 25
116.1187163533162
 35
0.0
 40
0.0
1001
ACAD
1000
DSTYLE
1002
{
1070
   288
1070
     1
1002
}
1001
ACAD_DSTYLE_DIMRADIAL_EXTENSION
1070
   387
1070
     1
1070
   388
1040
3.141592653589793
1070
   390
1040
4.712388980384689
  0
TEXT
  5
6845
330
5F6E
100
AcDbEntity
  8
标注
100
AcDbText
 10
961.6196658555773
 20
109.2356012838132
 30
0.0
 40
0.7874015748031497
  1
 CUTOUT
100
AcDbText
  0
LINE
  5
6846
330
5F6E
100
AcDbEntity
  8
中心线
  6
Continuous
 62
     1
100
AcDbLine
 10
953.9542597750106
 20
109.488802751118
 30
0.0
 11
960.1710647790945
 21
109.488802751118
 31
0.0
  0
DIMENSION
  5
6867
330
5F6E
100
AcDbEntity
  8
标注
100
AcDbDimension
  2
*D214
 10
947.1046272265855
 20
147.5121063902786
 30
0.0
 11
945.5970587299947
 21
146.6532465355651
 31
0.0
 70
   164
 71
     5
 42
0.3937007874000073
  3
副本STANDARD
100
AcDbRadialDimension
 15
946.8152077304679
 25
147.2452044133911
 35
0.0
 40
0.0
1001
ACAD
1000
DSTYLE
1002
{
1070
   288
1070
     1
1002
}
1001
ACAD_DSTYLE_DIMRADIAL_EXTENSION
1070
   387
1070
     1
1070
   388
1040
3.141592653589793
1070
   390
1040
4.712388980384689
  0
ENDSEC
  0
SECTION
  2
OBJECTS
  0
DICTIONARY
  5
5F06
330
0
100
AcDbDictionary
281
     1
  3
ACAD_COLOR
350
5F64
  3
ACAD_GROUP
350
5F07
  3
ACAD_LAYOUT
350
5F63
  3
ACAD_MATERIAL
350
5F0A
  3
ACAD_MLEADERSTYLE
350
5F67
  3
ACAD_MLINESTYLE
350
5F60
  3
ACAD_PLOTSETTINGS
350
5F62
  3
ACAD_PLOTSTYLENAME
350
5F08
  3
ACAD_SCALELIST
350
5F34
  3
ACAD_TABLESTYLE
350
5F65
  3
ACAD_VISUALSTYLE
350
5F23
  3
ACDB_RECOMPOSE_DATA
350
68BB
  3
AcDbVariableDictionary
350
6102
  3
DWGPROPS
350
68BC
  3
lxx_dict
350
60F2
  0
DICTIONARY
  5
61B7
330
5EFC
100
AcDbDictionary
280
     1
281
     1
  3
ACAD_LAYERSTATES
360
61B8
  0
DICTIONARY
  5
60F4
330
5F56
100
AcDbDictionary
280
     1
281
     1
  3
ADSK_XREC_LAYER_RECONCILED
360
60F5
  0
DICTIONARY
  5
60F6
330
5F72
100
AcDbDictionary
280
     1
281
     1
  3
ADSK_XREC_LAYER_RECONCILED
360
60F7
  0
DICTIONARY
  5
60F8
330
5F7D
100
AcDbDictionary
280
     1
281
     1
  3
ADSK_XREC_LAYER_RECONCILED
360
60F9
  0
DICTIONARY
  5
60FA
330
5F7E
100
AcDbDictionary
280
     1
281
     1
  3
ADSK_XREC_LAYER_RECONCILED
360
60FB
  0
DICTIONARY
  5
60FC
330
5F80
100
AcDbDictionary
280
     1
281
     1
  3
ADSK_XREC_LAYER_RECONCILED
360
60FD
  0
DICTIONARY
  5
61B2
330
61B1
100
AcDbDictionary
280
     1
281
     1
  0
DICTIONARY
  5
654F
330
5F6E
100
AcDbDictionary
280
     1
281
     1
  3
ACAD_SORTENTS
360
6550
  0
DICTIONARY
  5
667D
330
6608
100
AcDbDictionary
280
     1
281
     1
  3
ACAD_SORTENTS
360
667E
  0
DICTIONARY
  5
5F64
102
{ACAD_REACTORS
330
5F06
102
}
330
5F06
100
AcDbDictionary
281
     1
  0
DICTIONARY
  5
5F07
102
{ACAD_REACTORS
330
5F06
102
}
330
5F06
100
AcDbDictionary
281
     1
  0
DICTIONARY
  5
5F63
102
{ACAD_REACTORS
330
5F06
102
}
330
5F06
100
AcDbDictionary
281
     1
  3
Model
350
5F71
  3
布局1
350
5F6D
  0
DICTIONARY
  5
5F0A
102
{ACAD_REACTORS
330
5F06
102
}
330
5F06
100
AcDbDictionary
281
     1
  3
ByBlock
350
5F13
  3
ByLayer
350
5F0B
  3
Global
350
5F1B
  0
DICTIONARY
  5
5F67
102
{ACAD_REACTORS
330
5F06
102
}
330
5F06
100
AcDbDictionary
281
     1
  3
Standard
350
5F68
  0
DICTIONARY
  5
5F60
102
{ACAD_REACTORS
330
5F06
102
}
330
5F06
100
AcDbDictionary
281
     1
  3
Standard
350
5F61
  0
DICTIONARY
  5
5F62
102
{ACAD_REACTORS
330
5F06
102
}
330
5F06
100
AcDbDictionary
281
     1
  0
ACDBDICTIONARYWDFLT
  5
5F08
102
{ACAD_REACTORS
330
5F06
102
}
330
5F06
100
AcDbDictionary
281
     1
  3
Normal
350
5F09
100
AcDbDictionaryWithDefault
340
5F09
  0
DICTIONARY
  5
5F34
102
{ACAD_REACTORS
330
5F06
102
}
330
5F06
100
AcDbDictionary
281
     1
  3
A0
350
5F35
  3
A1
350
5F36
  3
A2
350
5F37
  3
A3
350
5F38
  3
A4
350
5F39
  3
A5
350
5F3A
  3
A6
350
5F3B
  3
A7
350
5F3C
  3
A8
350
5F3D
  3
A9
350
5F3E
  3
B0
350
5F3F
  3
B1
350
5F40
  3
B2
350
5F41
  3
B3
350
5F42
  3
B4
350
5F43
  3
B5
350
5F44
  3
B6
350
5F45
  3
B7
350
5F46
  3
B8
350
5F47
  3
B9
350
5F48
  3
C0
350
5F49
  3
C1
350
5F4A
  3
C2
350
5F4B
  3
C3
350
5F4C
  3
C4
350
5F4D
  3
C5
350
5F4E
  3
C6
350
5F4F
  3
C7
350
5F50
  3
C8
350
5F51
  3
C9
350
5F52
  3
D0
350
5F53
  3
D1
350
5F54
  3
D2
350
5F55
  0
DICTIONARY
  5
5F65
102
{ACAD_REACTORS
330
5F06
102
}
330
5F06
100
AcDbDictionary
281
     1
  3
Standard
350
5F66
  0
DICTIONARY
  5
5F23
102
{ACAD_REACTORS
330
5F06
102
}
330
5F06
100
AcDbDictionary
281
     1
  3
2dWireframe
350
5F29
  3
3D Hidden
350
5F2B
  3
3dWireframe
350
5F2A
  3
Basic
350
5F28
  3
Brighten
350
5F2F
  3
ColorChange
350
5F33
  3
Conceptual
350
5F2C
  3
Dim
350
5F2E
  3
Facepattern
350
5F32
  3
Flat
350
5F24
  3
FlatWithEdges
350
5F25
  3
Gouraud
350
5F26
  3
GouraudWithEdges
350
5F27
  3
Linepattern
350
5F31
  3
Realistic
350
5F2D
  3
Thicken
350
5F30
  0
XRECORD
  5
68BB
102
{ACAD_REACTORS
330
5F06
102
}
330
5F06
100
AcDbXrecord
280
     1
 90
        1
330
5F66
  0
DICTIONARY
  5
6102
102
{ACAD_REACTORS
330
5F06
102
}
330
5F06
100
AcDbDictionary
281
     1
  3
CANNOSCALE
350
6105
  3
CMLEADERSTYLE
350
6104
  3
CTABLESTYLE
350
6103
  3
DIMASSOC
350
6108
  3
INDEXCTL
350
6107
  3
SORTENTS
350
6106
  0
XRECORD
  5
68BC
102
{ACAD_REACTORS
330
5F06
102
}
330
5F06
100
AcDbXrecord
280
     1
  1
DWGPROPS COOKIE
  2

  3

  4

  6

  7

  8
Administrator
  9

300
=
301
=
302
=
303
=
304
=
305
=
306
=
307
=
308
=
309
=
 40
0.4337066203703704
 41
2455434.724808658
 42
2458562.447886007
  1

 90
        0
  0
DICTIONARY
  5
60F2
102
{ACAD_REACTORS
330
5F06
102
}
330
5F06
100
AcDbDictionary
281
     1
  3
lxx_dimth
350
60F3
  0
DICTIONARY
  5
61B8
102
{ACAD_REACTORS
330
61B7
102
}
330
61B7
100
AcDbDictionary
281
     1
  0
XRECORD
  5
60F5
102
{ACAD_REACTORS
330
60F4
102
}
330
60F4
100
AcDbXrecord
280
     1
290
     1
  0
XRECORD
  5
60F7
102
{ACAD_REACTORS
330
60F6
102
}
330
60F6
100
AcDbXrecord
280
     1
290
     1
  0
XRECORD
  5
60F9
102
{ACAD_REACTORS
330
60F8
102
}
330
60F8
100
AcDbXrecord
280
     1
290
     1
  0
XRECORD
  5
60FB
102
{ACAD_REACTORS
330
60FA
102
}
330
60FA
100
AcDbXrecord
280
     1
290
     1
  0
XRECORD
  5
60FD
102
{ACAD_REACTORS
330
60FC
102
}
330
60FC
100
AcDbXrecord
280
     1
290
     1
  0
SORTENTSTABLE
  5
6550
102
{ACAD_REACTORS
330
654F
102
}
330
654F
100
AcDbSortentsTable
330
5F6E
  0
SORTENTSTABLE
  5
667E
102
{ACAD_REACTORS
330
667D
102
}
330
667D
100
AcDbSortentsTable
330
6608
  0
LAYOUT
  5
5F71
102
{ACAD_XDICTIONARY
360
68C3
102
}
102
{ACAD_REACTORS
330
5F63
102
}
330
5F63
100
AcDbPlotSettings
  1

  2
\\192.168.1.64\Canon LBP2900
  4

  6

 40
0.0
 41
0.0
 42
0.0
 43
0.0
 44
0.0
 45
0.0
 46
0.0
 47
0.0
 48
0.0
 49
0.0
140
0.0
141
0.0
142
1.0
143
1.0
 70
  1712
 72
     0
 73
     0
 74
     0
  7

 75
     0
147
1.0
148
0.0
149
0.0
100
AcDbLayout
  1
Model
 70
     1
 71
     0
 10
0.0
 20
0.0
 11
12.0
 21
9.0
 12
0.0
 22
0.0
 32
0.0
 14
0.0
 24
0.0
 34
0.0
 15
0.0
 25
0.0
 35
0.0
146
0.0
 13
0.0
 23
0.0
 33
0.0
 16
1.0
 26
0.0
 36
0.0
 17
0.0
 27
1.0
 37
0.0
 76
     0
330
5F6E
331
5F73
  0
LAYOUT
  5
5F6D
102
{ACAD_XDICTIONARY
360
68C1
102
}
102
{ACAD_REACTORS
330
5F63
102
}
330
5F63
100
AcDbPlotSettings
  1

  2
\\192.168.1.64\Canon LBP2900
  4

  6

 40
0.0
 41
0.0
 42
0.0
 43
0.0
 44
0.0
 45
0.0
 46
0.0
 47
0.0
 48
0.0
 49
0.0
140
0.0
141
0.0
142
1.0
143
1.0
 70
   688
 72
     0
 73
     0
 74
     5
  7

 75
    16
147
1.0
148
0.0
149
0.0
100
AcDbLayout
  1
布局1
 70
     1
 71
     1
 10
0.0
 20
0.0
 11
12.0
 21
9.0
 12
0.0
 22
0.0
 32
0.0
 14
1.000000000000000E+20
 24
1.000000000000000E+20
 34
1.000000000000000E+20
 15
-1.000000000000000E+20
 25
-1.000000000000000E+20
 35
-1.000000000000000E+20
146
0.0
 13
0.0
 23
0.0
 33
0.0
 16
1.0
 26
0.0
 36
0.0
 17
0.0
 27
1.0
 37
0.0
 76
     0
330
5F6A
  0
MATERIAL
  5
5F13
102
{ACAD_XDICTIONARY
360
5F14
102
}
102
{ACAD_REACTORS
330
5F0A
102
}
330
5F0A
100
AcDbMaterial
  1
ByBlock
 72
     0
 43
0.0208333333333333
 43
0.0
 43
0.0
 43
0.0
 43
0.0
 43
0.0208333333333333
 43
0.0
 43
0.0
 43
0.0
 43
0.0
 43
1.0
 43
0.0
 43
0.0
 43
0.0
 43
0.0
 43
1.0
 77
     0
 47
0.0208333333333333
 47
0.0
 47
0.0
 47
0.0
 47
0.0
 47
0.0208333333333333
 47
0.0
 47
0.0
 47
0.0
 47
0.0
 47
1.0
 47
0.0
 47
0.0
 47
0.0
 47
0.0
 47
1.0
171
     0
 49
0.0208333333333333
 49
0.0
 49
0.0
 49
0.0
 49
0.0
 49
0.0208333333333333
 49
0.0
 49
0.0
 49
0.0
 49
0.0
 49
1.0
 49
0.0
 49
0.0
 49
0.0
 49
0.0
 49
1.0
175
     0
142
0.0208333333333333
142
0.0
142
0.0
142
0.0
142
0.0
142
0.0208333333333333
142
0.0
142
0.0
142
0.0
142
0.0
142
1.0
142
0.0
142
0.0
142
0.0
142
0.0
142
1.0
179
     0
144
0.0208333333333333
144
0.0
144
0.0
144
0.0
144
0.0
144
0.0208333333333333
144
0.0
144
0.0
144
0.0
144
0.0
144
1.0
144
0.0
144
0.0
144
0.0
144
0.0
144
1.0
147
0.0208333333333333
147
0.0
147
0.0
147
0.0
147
0.0
147
0.0208333333333333
147
0.0
147
0.0
147
0.0
147
0.0
147
1.0
147
0.0
147
0.0
147
0.0
147
0.0
147
1.0
  0
MATERIAL
  5
5F0B
102
{ACAD_XDICTIONARY
360
5F0C
102
}
102
{ACAD_REACTORS
330
5F0A
102
}
330
5F0A
100
AcDbMaterial
  1
ByLayer
 72
     0
 43
0.0208333333333333
 43
0.0
 43
0.0
 43
0.0
 43
0.0
 43
0.0208333333333333
 43
0.0
 43
0.0
 43
0.0
 43
0.0
 43
1.0
 43
0.0
 43
0.0
 43
0.0
 43
0.0
 43
1.0
 77
     0
 47
0.0208333333333333
 47
0.0
 47
0.0
 47
0.0
 47
0.0
 47
0.0208333333333333
 47
0.0
 47
0.0
 47
0.0
 47
0.0
 47
1.0
 47
0.0
 47
0.0
 47
0.0
 47
0.0
 47
1.0
171
     0
 49
0.0208333333333333
 49
0.0
 49
0.0
 49
0.0
 49
0.0
 49
0.0208333333333333
 49
0.0
 49
0.0
 49
0.0
 49
0.0
 49
1.0
 49
0.0
 49
0.0
 49
0.0
 49
0.0
 49
1.0
175
     0
142
0.0208333333333333
142
0.0
142
0.0
142
0.0
142
0.0
142
0.0208333333333333
142
0.0
142
0.0
142
0.0
142
0.0
142
1.0
142
0.0
142
0.0
142
0.0
142
0.0
142
1.0
179
     0
144
0.0208333333333333
144
0.0
144
0.0
144
0.0
144
0.0
144
0.0208333333333333
144
0.0
144
0.0
144
0.0
144
0.0
144
1.0
144
0.0
144
0.0
144
0.0
144
0.0
144
1.0
147
0.0208333333333333
147
0.0
147
0.0
147
0.0
147
0.0
147
0.0208333333333333
147
0.0
147
0.0
147
0.0
147
0.0
147
1.0
147
0.0
147
0.0
147
0.0
147
0.0
147
1.0
  0
MATERIAL
  5
5F1B
102
{ACAD_XDICTIONARY
360
5F1C
102
}
102
{ACAD_REACTORS
330
5F0A
102
}
330
5F0A
100
AcDbMaterial
  1
Global
 72
     0
 43
0.0208333333333333
 43
0.0
 43
0.0
 43
0.0
 43
0.0
 43
0.0208333333333333
 43
0.0
 43
0.0
 43
0.0
 43
0.0
 43
1.0
 43
0.0
 43
0.0
 43
0.0
 43
0.0
 43
1.0
 77
     0
 47
0.0208333333333333
 47
0.0
 47
0.0
 47
0.0
 47
0.0
 47
0.0208333333333333
 47
0.0
 47
0.0
 47
0.0
 47
0.0
 47
1.0
 47
0.0
 47
0.0
 47
0.0
 47
0.0
 47
1.0
171
     0
 49
0.0208333333333333
 49
0.0
 49
0.0
 49
0.0
 49
0.0
 49
0.0208333333333333
 49
0.0
 49
0.0
 49
0.0
 49
0.0
 49
1.0
 49
0.0
 49
0.0
 49
0.0
 49
0.0
 49
1.0
175
     0
142
0.0208333333333333
142
0.0
142
0.0
142
0.0
142
0.0
142
0.0208333333333333
142
0.0
142
0.0
142
0.0
142
0.0
142
1.0
142
0.0
142
0.0
142
0.0
142
0.0
142
1.0
179
     0
144
0.0208333333333333
144
0.0
144
0.0
144
0.0
144
0.0
144
0.0208333333333333
144
0.0
144
0.0
144
0.0
144
0.0
144
1.0
144
0.0
144
0.0
144
0.0
144
0.0
144
1.0
147
0.0208333333333333
147
0.0
147
0.0
147
0.0
147
0.0
147
0.0208333333333333
147
0.0
147
0.0
147
0.0
147
0.0
147
1.0
147
0.0
147
0.0
147
0.0
147
0.0
147
1.0
  0
MLEADERSTYLE
  5
5F68
102
{ACAD_REACTORS
330
5F67
102
}
330
5F67
100
AcDbMLeaderStyle
170
     2
171
     1
172
     0
 90
        2
 40
0.0
 41
0.0
173
     1
 91
-1056964608
340
5F5C
 92
       -2
290
     1
 42
0.09
291
     1
 43
0.36
  3
Standard
 44
0.18
300

342
5F57
174
     1
178
     6
175
     1
176
     0
 93
-1056964608
 45
0.18
292
     0
297
     0
 46
0.18
 94
-1056964608
 47
1.0
 49
1.0
140
1.0
293
     1
141
0.0
294
     1
177
     0
142
1.0
295
     0
296
     0
143
0.125
1001
ACAD_MLEADERVER
1070
     2
  0
MLINESTYLE
  5
5F61
102
{ACAD_REACTORS
330
5F60
102
}
330
5F60
100
AcDbMlineStyle
  2
STANDARD
 70
     0
  3

 62
   256
 51
90.0
 52
90.0
 71
     2
 49
0.5
 62
   256
  6
BYLAYER
 49
-0.5
 62
   256
  6
BYLAYER
  0
ACDBPLACEHOLDER
  5
5F09
102
{ACAD_REACTORS
330
5F08
102
}
330
5F08
  0
SCALE
  5
5F35
102
{ACAD_REACTORS
330
5F34
102
}
330
5F34
100
AcDbScale
 70
     0
300
1:1
140
1.0
141
1.0
290
     1
  0
SCALE
  5
5F36
102
{ACAD_REACTORS
330
5F34
102
}
330
5F34
100
AcDbScale
 70
     0
300
1:2
140
1.0
141
2.0
290
     0
  0
SCALE
  5
5F37
102
{ACAD_REACTORS
330
5F34
102
}
330
5F34
100
AcDbScale
 70
     0
300
1:4
140
1.0
141
4.0
290
     0
  0
SCALE
  5
5F38
102
{ACAD_REACTORS
330
5F34
102
}
330
5F34
100
AcDbScale
 70
     0
300
1:5
140
1.0
141
5.0
290
     0
  0
SCALE
  5
5F39
102
{ACAD_REACTORS
330
5F34
102
}
330
5F34
100
AcDbScale
 70
     0
300
1:8
140
1.0
141
8.0
290
     0
  0
SCALE
  5
5F3A
102
{ACAD_REACTORS
330
5F34
102
}
330
5F34
100
AcDbScale
 70
     0
300
1:10
140
1.0
141
10.0
290
     0
  0
SCALE
  5
5F3B
102
{ACAD_REACTORS
330
5F34
102
}
330
5F34
100
AcDbScale
 70
     0
300
1:16
140
1.0
141
16.0
290
     0
  0
SCALE
  5
5F3C
102
{ACAD_REACTORS
330
5F34
102
}
330
5F34
100
AcDbScale
 70
     0
300
1:20
140
1.0
141
20.0
290
     0
  0
SCALE
  5
5F3D
102
{ACAD_REACTORS
330
5F34
102
}
330
5F34
100
AcDbScale
 70
     0
300
1:30
140
1.0
141
30.0
290
     0
  0
SCALE
  5
5F3E
102
{ACAD_REACTORS
330
5F34
102
}
330
5F34
100
AcDbScale
 70
     0
300
1:40
140
1.0
141
40.0
290
     0
  0
SCALE
  5
5F3F
102
{ACAD_REACTORS
330
5F34
102
}
330
5F34
100
AcDbScale
 70
     0
300
1:50
140
1.0
141
50.0
290
     0
  0
SCALE
  5
5F40
102
{ACAD_REACTORS
330
5F34
102
}
330
5F34
100
AcDbScale
 70
     0
300
1:100
140
1.0
141
100.0
290
     0
  0
SCALE
  5
5F41
102
{ACAD_REACTORS
330
5F34
102
}
330
5F34
100
AcDbScale
 70
     0
300
2:1
140
2.0
141
1.0
290
     0
  0
SCALE
  5
5F42
102
{ACAD_REACTORS
330
5F34
102
}
330
5F34
100
AcDbScale
 70
     0
300
4:1
140
4.0
141
1.0
290
     0
  0
SCALE
  5
5F43
102
{ACAD_REACTORS
330
5F34
102
}
330
5F34
100
AcDbScale
 70
     0
300
8:1
140
8.0
141
1.0
290
     0
  0
SCALE
  5
5F44
102
{ACAD_REACTORS
330
5F34
102
}
330
5F34
100
AcDbScale
 70
     0
300
10:1
140
10.0
141
1.0
290
     0
  0
SCALE
  5
5F45
102
{ACAD_REACTORS
330
5F34
102
}
330
5F34
100
AcDbScale
 70
     0
300
100:1
140
100.0
141
1.0
290
     0
  0
SCALE
  5
5F46
102
{ACAD_REACTORS
330
5F34
102
}
330
5F34
100
AcDbScale
 70
     0
300
1/128" = 1'-0"
140
0.0078125
141
12.0
290
     0
  0
SCALE
  5
5F47
102
{ACAD_REACTORS
330
5F34
102
}
330
5F34
100
AcDbScale
 70
     0
300
1/64" = 1'-0"
140
0.015625
141
12.0
290
     0
  0
SCALE
  5
5F48
102
{ACAD_REACTORS
330
5F34
102
}
330
5F34
100
AcDbScale
 70
     0
300
1/32" = 1'-0"
140
0.03125
141
12.0
290
     0
  0
SCALE
  5
5F49
102
{ACAD_REACTORS
330
5F34
102
}
330
5F34
100
AcDbScale
 70
     0
300
1/16" = 1'-0"
140
0.0625
141
12.0
290
     0
  0
SCALE
  5
5F4A
102
{ACAD_REACTORS
330
5F34
102
}
330
5F34
100
AcDbScale
 70
     0
300
3/32" = 1'-0"
140
0.09375
141
12.0
290
     0
  0
SCALE
  5
5F4B
102
{ACAD_REACTORS
330
5F34
102
}
330
5F34
100
AcDbScale
 70
     0
300
1/8" = 1'-0"
140
0.125
141
12.0
290
     0
  0
SCALE
  5
5F4C
102
{ACAD_REACTORS
330
5F34
102
}
330
5F34
100
AcDbScale
 70
     0
300
3/16" = 1'-0"
140
0.1875
141
12.0
290
     0
  0
SCALE
  5
5F4D
102
{ACAD_REACTORS
330
5F34
102
}
330
5F34
100
AcDbScale
 70
     0
300
1/4" = 1'-0"
140
0.25
141
12.0
290
     0
  0
SCALE
  5
5F4E
102
{ACAD_REACTORS
330
5F34
102
}
330
5F34
100
AcDbScale
 70
     0
300
3/8" = 1'-0"
140
0.375
141
12.0
290
     0
  0
SCALE
  5
5F4F
102
{ACAD_REACTORS
330
5F34
102
}
330
5F34
100
AcDbScale
 70
     0
300
1/2" = 1'-0"
140
0.5
141
12.0
290
     0
  0
SCALE
  5
5F50
102
{ACAD_REACTORS
330
5F34
102
}
330
5F34
100
AcDbScale
 70
     0
300
3/4" = 1'-0"
140
0.75
141
12.0
290
     0
  0
SCALE
  5
5F51
102
{ACAD_REACTORS
330
5F34
102
}
330
5F34
100
AcDbScale
 70
     0
300
1" = 1'-0"
140
1.0
141
12.0
290
     0
  0
SCALE
  5
5F52
102
{ACAD_REACTORS
330
5F34
102
}
330
5F34
100
AcDbScale
 70
     0
300
1-1/2" = 1'-0"
140
1.5
141
12.0
290
     0
  0
SCALE
  5
5F53
102
{ACAD_REACTORS
330
5F34
102
}
330
5F34
100
AcDbScale
 70
     0
300
3" = 1'-0"
140
3.0
141
12.0
290
     0
  0
SCALE
  5
5F54
102
{ACAD_REACTORS
330
5F34
102
}
330
5F34
100
AcDbScale
 70
     0
300
6" = 1'-0"
140
6.0
141
12.0
290
     0
  0
SCALE
  5
5F55
102
{ACAD_REACTORS
330
5F34
102
}
330
5F34
100
AcDbScale
 70
     0
300
1'-0" = 1'-0"
140
12.0
141
12.0
290
     0
  0
TABLESTYLE
  5
5F66
102
{ACAD_XDICTIONARY
360
68B9
102
}
102
{ACAD_REACTORS
330
5F65
102
}
330
5F65
100
AcDbTableStyle
  3
Standard
 70
     0
 71
     0
 40
0.06
 41
0.06
280
     0
281
     0
  7
STANDARD
140
0.18
170
     2
 62
     0
 63
     7
283
     0
274
    -2
284
     1
 64
     0
275
    -2
285
     1
 65
     0
276
    -2
286
     1
 66
     0
277
    -2
287
     1
 67
     0
278
    -2
288
     1
 68
     0
279
    -2
289
     1
 69
     0
  7
STANDARD
140
0.25
170
     5
 62
     0
 63
     7
283
     0
274
    -2
284
     1
 64
     0
275
    -2
285
     1
 65
     0
276
    -2
286
     1
 66
     0
277
    -2
287
     1
 67
     0
278
    -2
288
     1
 68
     0
279
    -2
289
     1
 69
     0
  7
STANDARD
140
0.18
170
     5
 62
     0
 63
     7
283
     0
274
    -2
284
     1
 64
     0
275
    -2
285
     1
 65
     0
276
    -2
286
     1
 66
     0
277
    -2
287
     1
 67
     0
278
    -2
288
     1
 68
     0
279
    -2
289
     1
 69
     0
  0
VISUALSTYLE
  5
5F29
102
{ACAD_REACTORS
330
5F23
102
}
330
5F23
100
AcDbVisualStyle
  2
2dWireframe
 70
     4
 71
     0
 72
     2
 73
     0
 90
        0
 40
-0.6
 41
-30.0
 62
     5
 63
     7
 74
     1
 91
        4
 64
     7
 65
   257
 75
     1
175
     1
 42
1.0
 92
        0
 66
   257
 43
1.0
 76
     1
 77
     6
 78
     2
 67
     7
 79
     5
170
     0
171
     0
290
     0
174
     0
 93
        1
 44
0.0
173
     0
291
     0
 45
0.0
1001
ACAD
1000
AcDbSavedByObjectVersion
1070
     0
  0
VISUALSTYLE
  5
5F2B
102
{ACAD_REACTORS
330
5F23
102
}
330
5F23
100
AcDbVisualStyle
  2
3D Hidden
 70
     6
 71
     1
 72
     2
 73
     2
 90
        0
 40
-0.6
 41
-30.0
 62
     5
 63
     7
 74
     2
 91
        2
 64
     7
 65
   257
 75
     2
175
     1
 42
40.0
 92
        0
 66
   257
 43
1.0
 76
     1
 77
     6
 78
     2
 67
     7
 79
     3
170
     0
171
     0
290
     0
174
     0
 93
        1
 44
0.0
173
     0
291
     0
 45
0.0
1001
ACAD
1000
AcDbSavedByObjectVersion
1070
     0
  0
VISUALSTYLE
  5
5F2A
102
{ACAD_REACTORS
330
5F23
102
}
330
5F23
100
AcDbVisualStyle
  2
3dWireframe
 70
     5
 71
     0
 72
     2
 73
     0
 90
        0
 40
-0.6
 41
-30.0
 62
     5
 63
     7
 74
     1
 91
        4
 64
     7
 65
   257
 75
     1
175
     1
 42
1.0
 92
        0
 66
   257
 43
1.0
 76
     1
 77
     6
 78
     2
 67
     7
 79
     5
170
     0
171
     0
290
     0
174
     0
 93
        1
 44
0.0
173
     0
291
     0
 45
0.0
1001
ACAD
1000
AcDbSavedByObjectVersion
1070
     0
  0
VISUALSTYLE
  5
5F28
102
{ACAD_REACTORS
330
5F23
102
}
330
5F23
100
AcDbVisualStyle
  2
Basic
 70
     7
 71
     1
 72
     0
 73
     1
 90
        0
 40
-0.6
 41
-30.0
 62
     5
 63
     7
 74
     0
 91
        4
 64
     7
 65
   257
 75
     1
175
     1
 42
1.0
 92
        8
 66
     7
 43
1.0
 76
     1
 77
     6
 78
     2
 67
     7
 79
     5
170
     0
171
     0
290
     0
174
     0
 93
        1
 44
0.0
173
     0
291
     1
 45
0.0
1001
ACAD
1000
AcDbSavedByObjectVersion
1070
     0
  0
VISUALSTYLE
  5
5F2F
102
{ACAD_REACTORS
330
5F23
102
}
330
5F23
100
AcDbVisualStyle
  2
Brighten
 70
    12
 71
     2
 72
     2
 73
     0
 90
        0
 40
-0.6
 41
-30.0
 62
     5
 63
     7
 74
     1
 91
        4
 64
     7
 65
   257
 75
     1
175
     1
 42
1.0
 92
        8
 66
     7
 43
1.0
 76
     1
 77
     6
 78
     2
 67
     7
 79
     5
170
     0
171
     0
290
     0
174
     0
 93
        1
 44
50.0
173
     0
291
     1
 45
0.0
1001
ACAD
1000
AcDbSavedByObjectVersion
1070
     0
  0
VISUALSTYLE
  5
5F33
102
{ACAD_REACTORS
330
5F23
102
}
330
5F23
100
AcDbVisualStyle
  2
ColorChange
 70
    16
 71
     2
 72
     2
 73
     3
 90
        0
 40
-0.6
 41
-30.0
 62
     5
 63
     8
 74
     1
 91
        4
 64
     7
 65
   257
 75
     1
175
     1
 42
1.0
 92
        8
 66
     8
 43
1.0
 76
     1
 77
     6
 78
     2
 67
     7
 79
     5
170
     0
171
     0
290
     0
174
     0
 93
        1
 44
0.0
173
     0
291
     1
 45
0.0
1001
ACAD
1000
AcDbSavedByObjectVersion
1070
     0
  0
VISUALSTYLE
  5
5F2C
102
{ACAD_REACTORS
330
5F23
102
}
330
5F23
100
AcDbVisualStyle
  2
Conceptual
 70
     9
 71
     3
 72
     2
 73
     0
 90
        0
 40
-0.6
 41
-30.0
 62
     5
 63
     7
 74
     2
 91
        2
 64
     7
 65
   257
 75
     1
175
     1
 42
40.0
 92
        8
 66
     7
 43
1.0
 76
     1
 77
     6
 78
     2
 67
     7
 79
     3
170
     0
171
     0
290
     0
174
     0
 93
        1
 44
0.0
173
     0
291
     0
 45
0.0
1001
ACAD
1000
AcDbSavedByObjectVersion
1070
     0
  0
VISUALSTYLE
  5
5F2E
102
{ACAD_REACTORS
330
5F23
102
}
330
5F23
100
AcDbVisualStyle
  2
Dim
 70
    11
 71
     2
 72
     2
 73
     0
 90
        0
 40
-0.6
 41
-30.0
 62
     5
 63
     7
 74
     1
 91
        4
 64
     7
 65
   257
 75
     1
175
     1
 42
1.0
 92
        8
 66
     7
 43
1.0
 76
     1
 77
     6
 78
     2
 67
     7
 79
     5
170
     0
171
     0
290
     0
174
     0
 93
        1
 44
-50.0
173
     0
291
     1
 45
0.0
1001
ACAD
1000
AcDbSavedByObjectVersion
1070
     0
  0
VISUALSTYLE
  5
5F32
102
{ACAD_REACTORS
330
5F23
102
}
330
5F23
100
AcDbVisualStyle
  2
Facepattern
 70
    15
 71
     2
 72
     2
 73
     0
 90
        0
 40
-0.6
 41
-30.0
 62
     5
 63
     7
 74
     1
 91
        4
 64
     7
 65
   257
 75
     1
175
     1
 42
1.0
 92
        8
 66
     7
 43
1.0
 76
     1
 77
     6
 78
     2
 67
     7
 79
     5
170
     0
171
     0
290
     0
174
     0
 93
        1
 44
0.0
173
     0
291
     1
 45
0.0
1001
ACAD
1000
AcDbSavedByObjectVersion
1070
     0
  0
VISUALSTYLE
  5
5F24
102
{ACAD_REACTORS
330
5F23
102
}
330
5F23
100
AcDbVisualStyle
  2
Flat
 70
     0
 71
     2
 72
     1
 73
     1
 90
        2
 40
-0.6
 41
30.0
 62
     5
 63
     7
 74
     0
 91
        4
 64
     7
 65
   257
 75
     1
175
     1
 42
1.0
 92
        8
 66
     7
 43
1.0
 76
     1
 77
     6
 78
     2
 67
     7
 79
     5
170
     0
171
     0
290
     0
174
     0
 93
       13
 44
0.0
173
     0
291
     1
 45
0.0
1001
ACAD
1000
AcDbSavedByObjectVersion
1070
     0
  0
VISUALSTYLE
  5
5F25
102
{ACAD_REACTORS
330
5F23
102
}
330
5F23
100
AcDbVisualStyle
  2
FlatWithEdges
 70
     1
 71
     2
 72
     1
 73
     1
 90
        2
 40
-0.6
 41
30.0
 62
     5
 63
     7
 74
     1
 91
        4
 64
     7
 65
   257
 75
     1
175
     1
 42
1.0
 92
        0
 66
   257
 43
1.0
 76
     1
 77
     6
 78
     2
 67
     7
 79
     5
170
     0
171
     0
290
     0
174
     0
 93
       13
 44
0.0
173
     0
291
     1
 45
0.0
1001
ACAD
1000
AcDbSavedByObjectVersion
1070
     0
  0
VISUALSTYLE
  5
5F26
102
{ACAD_REACTORS
330
5F23
102
}
330
5F23
100
AcDbVisualStyle
  2
Gouraud
 70
     2
 71
     2
 72
     2
 73
     1
 90
        2
 40
-0.6
 41
30.0
 62
     5
 63
     7
 74
     0
 91
        4
 64
     7
 65
   257
 75
     1
175
     1
 42
1.0
 92
        0
 66
     7
 43
1.0
 76
     1
 77
     6
 78
     2
 67
     7
 79
     5
170
     0
171
     0
290
     0
174
     0
 93
       13
 44
0.0
173
     0
291
     1
 45
0.0
1001
ACAD
1000
AcDbSavedByObjectVersion
1070
     0
  0
VISUALSTYLE
  5
5F27
102
{ACAD_REACTORS
330
5F23
102
}
330
5F23
100
AcDbVisualStyle
  2
GouraudWithEdges
 70
     3
 71
     2
 72
     2
 73
     1
 90
        2
 40
-0.6
 41
30.0
 62
     5
 63
     7
 74
     1
 91
        4
 64
     7
 65
   257
 75
     1
175
     1
 42
1.0
 92
        0
 66
   257
 43
1.0
 76
     1
 77
     6
 78
     2
 67
     7
 79
     5
170
     0
171
     0
290
     0
174
     0
 93
       13
 44
0.0
173
     0
291
     1
 45
0.0
1001
ACAD
1000
AcDbSavedByObjectVersion
1070
     0
  0
VISUALSTYLE
  5
5F31
102
{ACAD_REACTORS
330
5F23
102
}
330
5F23
100
AcDbVisualStyle
  2
Linepattern
 70
    14
 71
     2
 72
     2
 73
     0
 90
        0
 40
-0.6
 41
-30.0
 62
     5
 63
     7
 74
     1
 91
        4
 64
     7
 65
   257
 75
     7
175
     7
 42
1.0
 92
        8
 66
     7
 43
1.0
 76
     1
 77
     6
 78
     2
 67
     7
 79
     5
170
     0
171
     0
290
     0
174
     0
 93
        1
 44
0.0
173
     0
291
     1
 45
0.0
1001
ACAD
1000
AcDbSavedByObjectVersion
1070
     0
  0
VISUALSTYLE
  5
5F2D
102
{ACAD_REACTORS
330
5F23
102
}
330
5F23
100
AcDbVisualStyle
  2
Realistic
 70
     8
 71
     2
 72
     2
 73
     0
 90
        0
 40
-0.6
 41
-30.0
 62
     5
 63
     7
 74
     1
 91
        0
 64
     7
 65
   257
 75
     1
175
     1
 42
1.0
 92
        8
 66
     8
 43
1.0
 76
     1
 77
     6
 78
     2
 67
     7
 79
     5
170
     0
171
     0
290
     0
174
     0
 93
       13
 44
0.0
173
     0
291
     0
 45
0.0
1001
ACAD
1000
AcDbSavedByObjectVersion
1070
     0
  0
VISUALSTYLE
  5
5F30
102
{ACAD_REACTORS
330
5F23
102
}
330
5F23
100
AcDbVisualStyle
  2
Thicken
 70
    13
 71
     2
 72
     2
 73
     0
 90
        0
 40
-0.6
 41
-30.0
 62
     5
 63
     7
 74
     1
 91
        4
 64
     7
 65
   257
 75
     1
175
     1
 42
1.0
 92
       12
 66
     7
 43
1.0
 76
     1
 77
     6
 78
     2
 67
     7
 79
     5
170
     0
171
     0
290
     0
174
     0
 93
        1
 44
0.0
173
     0
291
     1
 45
0.0
1001
ACAD
1000
AcDbSavedByObjectVersion
1070
     0
  0
DICTIONARYVAR
  5
6105
102
{ACAD_REACTORS
330
6102
102
}
330
6102
100
DictionaryVariables
280
     0
  1
1:1
  0
DICTIONARYVAR
  5
6104
102
{ACAD_REACTORS
330
6102
102
}
330
6102
100
DictionaryVariables
280
     0
  1
STANDARD
  0
DICTIONARYVAR
  5
6103
102
{ACAD_REACTORS
330
6102
102
}
330
6102
100
DictionaryVariables
280
     0
  1
STANDARD
  0
DICTIONARYVAR
  5
6108
102
{ACAD_REACTORS
330
6102
102
}
330
6102
100
DictionaryVariables
280
     0
  1
1
  0
DICTIONARYVAR
  5
6107
102
{ACAD_REACTORS
330
6102
102
}
330
6102
100
DictionaryVariables
280
     0
  1
0
  0
DICTIONARYVAR
  5
6106
102
{ACAD_REACTORS
330
6102
102
}
330
6102
100
DictionaryVariables
280
     0
  1
127
  0
VLO-VL
  5
60F3
102
{ACAD_REACTORS
330
60F2
102
}
330
60F2
100
vlo_VL
 90
   -64512
 91
       12
 92
        1
 40
2.5
300
(&VLO-R . 0)
  0
DICTIONARY
  5
68C3
330
5F71
100
AcDbDictionary
280
     1
281
     1
  3
ACAD_XREC_ROUNDTRIP
360
68C4
  0
DICTIONARY
  5
68C1
330
5F6D
100
AcDbDictionary
280
     1
281
     1
  3
ACAD_XREC_ROUNDTRIP
360
68C2
  0
DICTIONARY
  5
5F14
330
5F13
100
AcDbDictionary
280
     1
281
     1
  3
ACAD_XREC_ROUNDTRIP
360
68BE
  3
BUMPTILE
360
5F16
  3
DIFFUSETILE
360
5F15
  3
OPACITYTILE
360
5F19
  3
REFLECTIONTILE
360
5F18
  3
REFRACTIONTILE
360
5F1A
  3
SPECULARTILE
360
5F17
  0
DICTIONARY
  5
5F0C
330
5F0B
100
AcDbDictionary
280
     1
281
     1
  3
ACAD_XREC_ROUNDTRIP
360
68BD
  3
BUMPTILE
360
5F0E
  3
DIFFUSETILE
360
5F0D
  3
OPACITYTILE
360
5F11
  3
REFLECTIONTILE
360
5F10
  3
REFRACTIONTILE
360
5F12
  3
SPECULARTILE
360
5F0F
  0
DICTIONARY
  5
5F1C
330
5F1B
100
AcDbDictionary
280
     1
281
     1
  3
ACAD_XREC_ROUNDTRIP
360
68BF
  3
BUMPTILE
360
5F1E
  3
DIFFUSETILE
360
5F1D
  3
OPACITYTILE
360
5F21
  3
REFLECTIONTILE
360
5F20
  3
REFRACTIONTILE
360
5F22
  3
SPECULARTILE
360
5F1F
  0
DICTIONARY
  5
68B9
330
5F66
100
AcDbDictionary
280
     1
281
     1
  3
ACAD_ROUNDTRIP_2008_TABLESTYLE_CELLSTYLEMAP
360
68BA
  3
ACAD_XREC_ROUNDTRIP
360
68C0
  0
XRECORD
  5
68C4
102
{ACAD_REACTORS
330
68C3
102
}
330
68C3
100
AcDbXrecord
280
     1
102
SHADEPLOT
 70
     0
102
SHADEPLOTRESLEVEL
 70
     2
102
SHADEPLOTCUSTOMDPI
 70
   300
  0
XRECORD
  5
68C2
102
{ACAD_REACTORS
330
68C1
102
}
330
68C1
100
AcDbXrecord
280
     1
102
SHADEPLOT
 70
     0
102
SHADEPLOTRESLEVEL
 70
     2
102
SHADEPLOTCUSTOMDPI
 70
   300
  0
XRECORD
  5
68BE
102
{ACAD_REACTORS
330
5F14
102
}
330
5F14
100
AcDbXrecord
280
     1
102
MATERIAL
148
0.0
149
0.0
149
0.0
 93
        0
 94
      127
282
     0
 72
     0
 77
     0
171
     0
175
     0
179
     0
273
     0
  0
XRECORD
  5
5F16
102
{ACAD_REACTORS
330
5F14
102
}
330
5F14
100
AcDbXrecord
280
     1
270
     1
271
     1
  0
XRECORD
  5
5F15
102
{ACAD_REACTORS
330
5F14
102
}
330
5F14
100
AcDbXrecord
280
     1
270
     1
271
     1
  0
XRECORD
  5
5F19
102
{ACAD_REACTORS
330
5F14
102
}
330
5F14
100
AcDbXrecord
280
     1
270
     1
271
     1
  0
XRECORD
  5
5F18
102
{ACAD_REACTORS
330
5F14
102
}
330
5F14
100
AcDbXrecord
280
     1
270
     1
271
     1
  0
XRECORD
  5
5F1A
102
{ACAD_REACTORS
330
5F14
102
}
330
5F14
100
AcDbXrecord
280
     1
270
     1
271
     1
  0
XRECORD
  5
5F17
102
{ACAD_REACTORS
330
5F14
102
}
330
5F14
100
AcDbXrecord
280
     1
270
     1
271
     1
  0
XRECORD
  5
68BD
102
{ACAD_REACTORS
330
5F0C
102
}
330
5F0C
100
AcDbXrecord
280
     1
102
MATERIAL
148
0.0
149
0.0
149
0.0
 93
        0
 94
      127
282
     0
 72
     0
 77
     0
171
     0
175
     0
179
     0
273
     0
  0
XRECORD
  5
5F0E
102
{ACAD_REACTORS
330
5F0C
102
}
330
5F0C
100
AcDbXrecord
280
     1
270
     1
271
     1
  0
XRECORD
  5
5F0D
102
{ACAD_REACTORS
330
5F0C
102
}
330
5F0C
100
AcDbXrecord
280
     1
270
     1
271
     1
  0
XRECORD
  5
5F11
102
{ACAD_REACTORS
330
5F0C
102
}
330
5F0C
100
AcDbXrecord
280
     1
270
     1
271
     1
  0
XRECORD
  5
5F10
102
{ACAD_REACTORS
330
5F0C
102
}
330
5F0C
100
AcDbXrecord
280
     1
270
     1
271
     1
  0
XRECORD
  5
5F12
102
{ACAD_REACTORS
330
5F0C
102
}
330
5F0C
100
AcDbXrecord
280
     1
270
     1
271
     1
  0
XRECORD
  5
5F0F
102
{ACAD_REACTORS
330
5F0C
102
}
330
5F0C
100
AcDbXrecord
280
     1
270
     1
271
     1
  0
XRECORD
  5
68BF
102
{ACAD_REACTORS
330
5F1C
102
}
330
5F1C
100
AcDbXrecord
280
     1
102
MATERIAL
148
0.0
149
0.0
149
0.0
 93
        0
 94
      127
282
     0
 72
     0
 77
     0
171
     0
175
     0
179
     0
273
     0
  0
XRECORD
  5
5F1E
102
{ACAD_REACTORS
330
5F1C
102
}
330
5F1C
100
AcDbXrecord
280
     1
270
     1
271
     1
  0
XRECORD
  5
5F1D
102
{ACAD_REACTORS
330
5F1C
102
}
330
5F1C
100
AcDbXrecord
280
     1
270
     1
271
     1
  0
XRECORD
  5
5F21
102
{ACAD_REACTORS
330
5F1C
102
}
330
5F1C
100
AcDbXrecord
280
     1
270
     1
271
     1
  0
XRECORD
  5
5F20
102
{ACAD_REACTORS
330
5F1C
102
}
330
5F1C
100
AcDbXrecord
280
     1
270
     1
271
     1
  0
XRECORD
  5
5F22
102
{ACAD_REACTORS
330
5F1C
102
}
330
5F1C
100
AcDbXrecord
280
     1
270
     1
271
     1
  0
XRECORD
  5
5F1F
102
{ACAD_REACTORS
330
5F1C
102
}
330
5F1C
100
AcDbXrecord
280
     1
270
     1
271
     1
  0
CELLSTYLEMAP
  5
68BA
102
{ACAD_REACTORS
330
68B9
102
}
330
68B9
100
AcDbCellStyleMap
 90
        3
300
CELLSTYLE
  1
TABLEFORMAT_BEGIN
 90
        5
170
     1
 91
        0
 92
    32768
 62
   257
 93
        1
300
CONTENTFORMAT
  1
CONTENTFORMAT_BEGIN
 90
        0
 91
        0
 92
      512
 93
        0
300

 40
0.0
140
1.0
 94
        5
 62
     0
340
5F57
144
0.25
309
CONTENTFORMAT_END
171
     0
 94
        0
309
TABLEFORMAT_END
  1
CELLSTYLE_BEGIN
 90
        1
 91
        1
300
_TITLE
309
CELLSTYLE_END
300
CELLSTYLE
  1
TABLEFORMAT_BEGIN
 90
        5
170
     1
 91
        0
 92
        0
 62
   257
 93
        1
300
CONTENTFORMAT
  1
CONTENTFORMAT_BEGIN
 90
        0
 91
        0
 92
      512
 93
        0
300

 40
0.0
140
1.0
 94
        5
 62
     0
340
5F57
144
0.18
309
CONTENTFORMAT_END
171
     0
 94
        0
309
TABLEFORMAT_END
  1
CELLSTYLE_BEGIN
 90
        2
 91
        1
300
_HEADER
309
CELLSTYLE_END
300
CELLSTYLE
  1
TABLEFORMAT_BEGIN
 90
        5
170
     1
 91
        0
 92
        0
 62
   257
 93
        1
300
CONTENTFORMAT
  1
CONTENTFORMAT_BEGIN
 90
        0
 91
        0
 92
      512
 93
        0
300

 40
0.0
140
1.0
 94
        2
 62
     0
340
5F57
144
0.18
309
CONTENTFORMAT_END
171
     0
 94
        0
309
TABLEFORMAT_END
  1
CELLSTYLE_BEGIN
 90
        3
 91
        2
300
_DATA
309
CELLSTYLE_END
  0
XRECORD
  5
68C0
102
{ACAD_REACTORS
330
68B9
102
}
330
68B9
100
AcDbXrecord
280
     1
102
ACAD_ROUNDTRIP_PRE2007_TABLESTYLE
 90
      512
 91
        0
  1

 92
      512
 93
        0
  2

 94
      512
 95
        0
  3

  0
ENDSEC
  0
EOF
